アットウィキロゴ
1
①□□② |①---|
□□□□ |--②-|
□□□□ |----|
③□□□ |③---|
2
□□□□ |--①-|
②□□□ |----|
③□□□ |②---|
□□□① |③---|
3
□□□□ |①---|
□②①□ |--②-|
□□③□ |----|
□□□□ |③---|
4
□③□□ |--①-|
□□□□ |----|
□①□□ |②---|
□②□□ |③---|
5
②□□① |①---|
□□□□ |--②-|
□□□□ |----|
□□□③ |③---|
6
□□□□ |--①-|
□□□② |----|
□□□③ |②---|
①□□□ |③---|
7
□□□□ |①---|
□①②□ |--②-|
□③□□ |----|
□□□□ |③---|
8
□□③□ |--①-|
□□□□ |----|
□□①□ |②---|
□□②□ |③---|
9
①□□③ |①-②-|
□②④□ |--③-|
□⑥□□ |④---|
⑤□□□ |⑤-⑥-|
10
□□□□ |--①-|
③□□④ |②---|
⑤□②⑥ |③-④-|
□□□① |⑤-⑥-|
11
④□□② |①-②-|
□③①□ |--③-|
□□⑤□ |④---|
□□□⑥ |⑤-⑥-|
12
□⑤⑥□ |--①-|
□□□□ |②---|
□①□□ |③-④-|
②③④□ |⑤-⑥-|
13
③⑥□① |①-②-|
①④②③ |--③-|
②□⑥④ |④---|
□⑤□⑤ |⑤-⑥-|
14
□⑥⑤② |--①-|
④□①③ |②---|
⑥②□⑤ |③-④-|
①④③□ |⑤-⑥-|
15
⑥⑯⑪⑤ |①②③④|
⑫②③⑨ |⑤⑥⑦⑧|
⑭④⑬⑮ |⑨⑩⑪⑫|
⑧⑩⑦① |⑬⑭⑮⑯|
16
□□□□ |①---|
□①①□ |----|
⑥⑦⑧⑨ |②③④⑤|
②③④⑤ |⑥⑦⑧⑨|
17
①⑤□③ |①-②-|
⑥②④□ |③-④-|
□⑦□□ |⑤-⑥-|
⑧□□□ |⑦-⑧-|
18
④□□② |--①-|
□⑩⑦□ |②-③-|
③⑥⑨① |④-⑤⑥|
□⑧⑤□ |⑦⑧⑨⑩|
19
□③①⑤ |①-②-|
④□⑥② |③-④-|
□⑦□□ |⑤-⑥-|
⑧□□□ |⑦-⑧-|
20
②⑧⑨⑩ |--①-|
⑤⑥⑦④ |②-③-|
①□□□ |④-⑤⑥|
□□□③ |⑦⑧⑨⑩|
21
□□□□ |①-②-|
□□□⑤ |③-④-|
②⑦⑥③ |⑤-⑥-|
⑧①④□ |⑦-⑧-|
22
②□□④ |--①-|
⑦⑥⑨⑩ |②-③-|
①⑤⑧③ |④-⑤⑥|
□□□□ |⑦⑧⑨⑩|
23
⑤②③□ |①-②-|
□⑥□□ |③-④-|
□□⑦□ |⑤-⑥-|
①⑧□④ |⑦-⑧-|
24
□③□① |①-②-|
⑨⑩⑪⑫ |③-④-|
⑤⑥⑦⑧ |⑤⑥⑦⑧|
②□④□ |⑨⑩⑪⑫|
25
①⑤□③ |①-②-|
⑥□□□ |③-④-|
□⑦□□ |⑤-⑥-|
⑧②④□ |⑦-⑧-|
26
④□□② |--①-|
□⑩⑦□ |②-③-|
③⑥⑨① |④-⑤⑥|
□⑧⑤□ |⑦⑧⑨⑩|
27
□③①⑤ |①-②-|
④□⑥② |③-④-|
□⑦□□ |⑤-⑥-|
⑧□□□ |⑦-⑧-|
28
②⑧⑨⑩ |--①-|
⑤⑥⑦④ |②-③-|
①□□□ |④-⑤⑥|
□□□③ |⑦⑧⑨⑩|
29
□□□□ |①-②-|
□□□⑤ |③-④-|
②⑦⑥③ |⑤-⑥-|
⑧①④□ |⑦-⑧-|
30
②□□④ |--①-|
⑦⑥⑨⑩ |②-③-|
①⑤⑧③ |④-⑤⑥|
□□□□ |⑦⑧⑨⑩|
31
⑤②③□ |①-②-|
□⑥□□ |③-④-|
□□⑦□ |⑤-⑥-|
①⑧□④ |⑦-⑧-|
32
⑤③⑦① |①-②-|
□□□□ |③-④-|
□□⑧⑥ |⑤-⑥-|
②□④□ |⑦-⑧-|
33
④④□□ |①-②-|
③③□① |③-④-|
②②□□ |----|
①①□∧ |⑤-⑥-|

□□□□
□□□□
□□⑥⑤
□□⑥⑤
34
□□□④ |①-②-|
□□③□ |----|
②①□□ |③---|
②①□□ |④---|

□□□□
□□□1
□□□□
□□□□
35
①①∨□ |①-②-|
②②□□ |③-④-|
③③①□ |----|
④④□□ |⑤-⑥-|

□□⑥⑤
□□⑥⑤
□□□□
□□□□
36
②①□□ |①-②-|
②①□□ |----|
□□□⑥ |---③④⑤|
③④⑤⑥ |⑥---|

□□□□
□□□□
□□1□
□□□□
37
>□□① |①---|
②□□< |--②-|
>□□③ |----|
□□□□ |③---|

□□①□
□②□③
□□□□
□□□□

□□□2
3□□□
□□□□
□□□□
38
□□□□ |--①-|
□□□□ |----|
①□□□ |②---|
①□□< |③---|

□③③□
□□□□
□□□□
□②②□

□□□□
□□□□
□□□1
2□□□
39
①□□① |①---|
□②②□ |--②-|
□□□□ |----|
□□∧∧ |③---|

□□□□
□□□□
□③③□
□∧□□
40
⑥②□□ |①---|
□⑤□□ |②---|
④□□□ |③-④-|
①③□□ |⑤-⑥-|

□□□1
□□1□
□1□□
□□□□
41
□□④④ |①-②-|
①□③③ |③-④-|
□□②② |----|
∧□①① |⑤-⑥-|

□□□□
□□□□
⑤⑥□□
⑤⑥□□
42
④□□□ |①-②-|
□③□□ |----|
□□①② |③---|
□□①② |④---|

□□□□
1□□□
□□□□
□□□□
43
□∨①① |①-②-|
□□②② |③-④-|
□①③③ |----|
□□④④ |⑤-⑥-|

⑤⑥□□
⑤⑥□□
□□□□
□□□□
44
③□①② |①-②-|
④□①② |----|
⑤□□□ |---③④⑤|
⑥⑥□□ |⑥---|

□□□□
□□□□
□1□□
□□□□
45
□①<□ |①---|
□∨□② |②-③-|
□③□□ |④-⑤-|
□□□① |⑥---|

∨□⑥□
⑥□□□
□□④□
□□□□

□2□□
□□□□
□5□□
□□□□
46
□□□□ |①-②-|
□□③□ |③-④-|
□□□□ |⑤---|
>②①□ |⑥---|

□□□⑥
□□□□
□□□⑤
⑤□□□

□□□□
1□□□
□□□□
□4□□
47
□①①⑥ |①-②-|
⑤②②□ |③-④-|
□③③⑤ |--⑤-|
⑥④④□ |--⑥-|

□□□□
□□□□
①□□<
□□□□

□□□□
□□□□
4□□□
□□□□
48
①□□□ |----|
□□□∨ |①---|
∧□□□ |②---|
□□□① |③---|

□□□□
□③②<
>②③□
□□□□

3□□□
□□3□
□3□□
□□□3
49
□④②① |①--②|
②□□④ |③-④-|
□□□□ |⑤-⑥-|
①③□□ |⑦-⑧-|

⑥□□⑧
□⑥⑧□
⑦□□⑤
□□□□
50
□□④□ |①-②-|
③□□④ |③-④-|
∨③□∨ |⑤⑥⑦⑧|
①□□① |⑨⑩⑪⑫|

⑨□□□
□⑦⑫□
⑪□⑥⑧
□⑤⑩□

□□□□
□□□□
□□□□
2□□2
51
□②④① |①--②|
②□□④ |③-④-|
□□□□ |⑤-⑥-|
①□□③ |⑦-⑧-|

⑥□□⑧
□⑥⑧□
□□□□
□⑤⑦□
52
□④□□ |①-②-|
④□□③ |③-④-|
①□③① |⑤⑥⑦⑧|
∧□□∧ |⑨⑩⑪⑫|

⑧□⑦□
□⑫⑨□
□⑥□□
⑩□⑪⑤

□□□□
□□□□
2□□2
□□□□
53
□④□② |①--②|
□□□□ |③-④-|
①□③① |⑤-⑥-|
□②□④ |⑦-⑧-|

⑧□□□
⑥□□⑥
□⑤□⑧
⑦□□□
54
□④①② |①--②|
□③□□ |③-④-|
②□□□ |⑤-⑥-|
□□①④ |⑦-⑧-|

□□□□
⑥□⑧⑤
□⑦□□
⑥□⑧□
55
②④①□ |①--②|
□③□□ |③-④-|
□□□② |⑤-⑥-|
□①□④ |⑦-⑧-|

□□⑧⑧
⑦□□⑥
⑥□⑤□
⑧⑧⑦□
56
①□□□ |----|
□②③□ |----|
□③②□ |--①-|
□□□① |②-③-|
57
□④②① |①--②|
②□□④ |③-④-|
□□□□ |⑤-⑥-|
①③□□ |⑦-⑧-|

⑥□□⑧
□⑥⑧□
⑦□□⑤
□□□□
58
□□④□ |①-②-|
③□□④ |③-④-|
∨③□∨ |⑤⑥⑦⑧|
①□□① |⑨⑩⑪⑫|

⑨□□□
□⑦⑫□
⑪□⑥⑧
□⑤⑩□

□□□□
□□□□
□□□□
2□□2
59
□②④① |①--②|
②□□④ |③-④-|
□□□□ |⑤-⑥-|
①□□③ |⑦-⑧-|

⑥□□⑧
□⑥⑧□
□□□□
□⑤⑦□
60
□④□□ |①-②-|
④□□③ |③-④-|
①□③① |⑤⑥⑦⑧|
∧□□∧ |⑨⑩⑪⑫|

⑧□⑦□
□⑫⑨□
□⑥□□
⑩□⑪⑤

□□□□
□□□□
2□□2
□□□□
61
□④□② |①--②|
□□□□ |③-④-|
①□③① |⑤-⑥-|
□②□④ |⑦-⑧-|

⑧□□□
⑥□□⑥
□⑤□⑧
⑦□□□
62
□④①② |①--②|
⑦③⑥□ |③-④-|
②⑥□⑦ |⑤-⑥-|
□⑤①④ |⑦---|
63
①□④② |①--②|
□③□□ |③-④-|
②□□□ |⑤-⑥-|
④□①□ |⑦-⑧-|

□⑥□□
⑥□⑦⑤
□⑦□⑧
□⑤⑧□
64
③□□< |①---|
□□□□ |②---|
□□□□ |③---|
②□□① |④---|

□□④□
□□□□
□□□□
□□∧□
65
□□□□ |①---|
□□□□ |--②-|
>□①□ |----|
□□□□ |----|

□□□□
∨□□□
②□□□
□□□□
66
□□□□ |----|
□□□□ |----|
□□□□ |----|
□□□□ |----|
67
1□1□ |①---|
□①□□ |----|
1②1□ |----|
□□□□ |②---|
68
□□①□ |①---|
②□□② |----|
□□□□ |②---|
③④⑤□ |③-④-⑤-|
69
□□□□ |①---|
□□□□ |----|
□□②□ |----|
□□□① |②---|
70
□①□□ |①---|
□□□□ |----|
②□□② |②---|
□⑤④③ |③-④-⑤-|
71
□□□□ |①---|
□□□□ |----|
□②□□ |----|
①□□□ |②---|
72
□□①□ |①---|
②□□② |----|
②□□② |②---|
□□□□ |----|
73
□②□② |①---|
□□□□ |----|
□□□□ |②---|
①□③□ |③---|
74
②□②③ |----|
□□□④ |①---|
□□□⑤ |②---|
□①□□ |③-④-⑤-|
75
②□②□ |①---|
□□□□ |----|
□□□□ |②---|
③□□① |③---|
76
⑤④□④ |①--②|
⑥①②③ |--③-|
⑦①②③ |④---|
□□□□ |⑤-⑥-⑦-|
77
□②□□ |①---|
□□②□ |----|
□③□□ |②---|
①□□□ |③---|
78
③□②③ |①---|
④②□④ |----|
⑤□□⑤ |②---|
□□①□ |③-④-⑤-|
79
□□□□ |①---|
□□□□ |----|
□□□□ |②---|
①□②① |----|
80
□□□□ |①---|
□□□□ |----|
□□□□ |②---|
②①□□ |----|
81
①□□□ |----|
□□□∨ |①---|
∧□□□ |②---|
□□□① |③---|

□□□□
□③②<
>②③□
□□□□

3□□□
□□3□
□3□□
□□□3
82
□④②① |①--②|
②□□④ |③-④-|
□□□□ |⑤-⑥-|
①③□□ |⑦-⑧-|

⑥□□⑧
□⑥⑧□
⑦□□⑤
□□□□
83
□□④□ |①-②-|
③□□④ |③-④-|
∨③□∨ |⑤⑥⑦⑧|
①□□① |⑨⑩⑪⑫|

⑨□□□
□⑦⑫□
⑪□⑥⑧
□⑤⑩□

□□□□
□□□□
□□□□
2□□2
84
□②④① |①--②|
②□□④ |③-④-|
□□□□ |⑤-⑥-|
①□□③ |⑦-⑧-|

⑥□□⑧
□⑥⑧□
□□□□
□⑤⑦□
85
□④□□ |①-②-|
④□□③ |③-④-|
①□③① |⑤⑥⑦⑧|
∧□□∧ |⑨⑩⑪⑫|

⑧□⑦□
□⑫⑨□
□⑥□□
⑩□⑪⑤

□□□□
□□□□
2□□2
□□□□
86
□④□② |①--②|
□□□□ |③-④-|
①□③① |⑤-⑥-|
□②□④ |⑦-⑧-|

⑧□□□
⑥□□⑥
□⑤□⑧
⑦□□□
87
□④①② |①--②|
□③□□ |③-④-|
②□□□ |⑤-⑥⑦|
□□①④ |⑧-⑨-|

□□□□
⑥□⑨⑤
□⑧⑦□
⑥□⑨□
88
②④①□ |①--②|
□③□□ |③-④-|
□□□② |⑤--⑥|
□①□④ |⑦-⑧-|

□□⑧⑥
⑤□⑦⑤
⑥□□□
⑧□□□
89
⑥④□□ |①-②-|
□⑧⑨⑤ |③-④-|
⑩⑫①⑦ |⑤⑥⑦⑧|
□②⑪③ |⑨⑩⑪⑫|
90
□④②① |①--②|
②□□④ |③-④-|
□□□□ |⑤-⑥-|
①③□□ |⑦-⑧-|

⑥□□⑧
□⑥⑧□
⑦□□⑤
□□□□
91
□□④□ |①-②-|
③□□④ |③-④-|
∨③□∨ |⑤⑥⑦⑧|
①□□① |⑨⑩⑪⑫|

⑨□□□
□⑦⑫□
⑪□⑥⑧
□⑤⑩□

□□□□
□□□□
□□□□
2□□2
92
□②④① |①--②|
②□□④ |③-④-|
□□□□ |⑤-⑥-|
①□□③ |⑦-⑧-|

⑥□□⑧
□⑥⑧□
□□□□
□⑤⑦□
93
□④□□ |①-②-|
④□□③ |③-④-|
①□③① |⑤⑥⑦⑧|
∧□□∧ |⑨⑩⑪⑫|

⑧□⑦□
□⑫⑨□
□⑥□□
⑩□⑪⑤

□□□□
□□□□
2□□2
□□□□
94
□④□② |①--②|
□□□□ |③-④-|
①□③① |⑤-⑥-|
□②□④ |⑦-⑧-|

⑧□□□
⑥□□⑥
□⑤□⑧
⑦□□□
95
□④①② |①--②|
⑧③□⑧ |③-④-|
②⑤⑦□ |⑤-⑥⑦|
⑥⑥①④ |⑧---|
96
□□①④ |①--②|
⑧②⑤⑧ |③-④-|
②④⑦① |⑤-⑥-|
⑦⑥③⑥ |⑦-⑧-|
97
①①⑦④ |①-②③|
⑪③⑧□ |④-⑤⑥|
⑥⑤⑨② |⑦⑧⑨⑩|
⑪□⑩□ |⑪---|
98
①④□④ |①-②-|
□②□② |③-④-|
∧③□③ |----|
□①□① |⑤-⑥-|

□□□□
⑤□⑥□
④□<□
⑤□⑥□
99
□④□④ |①-②-|
□①□② |----|
□③□③ |③-④-|
□①□② |----|

4□□□
□□□□
4□□□
□□□□
100
□□□□ |①---|
□□>① |----|
□□□□ |----|
□□□□ |----|
101
□□□□ |----|
□□□□ |----|
□□□□ |----|
□□□□ |----|
102
□□□□ |①---|
□□□1 |----|
□□□□ |----|
□□□□ |----|
最終更新:2023年03月16日 05:44