アットウィキロゴ
BPM:171
1
□□□□ |①---|
④□□③ |--②-|
②①①□ |③---|
□□□□ |--④-|
2
□□□③ |①---|
□□□□ |--②-|
□□□① |③---|
②□④□ |--④-|
3
□①③□ |①---|
□□□□ |--②-|
□□□□ |③---|
□②□④ |--④-|
4
□⑤⑤□ |--①-|
①②③④ |②-③-|
①②③④ |④---|
□⑤⑤□ |⑤---|
5
□③□② |①---|
①□□□ |②---|
□□□② |③-④-|
①□④□ |--⑤-|

□□□□
⑤□□□
□□□□
□⑤□□
6
□□⑥① |--①-|
□⑦①□ |---②③④|
②③④⑤ |⑤-⑥-|
□□⑧□ |⑦-⑧-|
7
□□④① |--①-|
②⑦⑦□ |②-③-|
□⑤□□ |④-⑤-|
□□⑥③ |⑥-⑦-|
8
□④□③ |--①-|
②□□□ |②-③-|
⑤⑥⑥□ |④-⑤-|
□□□① |⑥---|
9
①□①③ |--①-|
⑤□□□ |--②-|
□□④□ |③-④-|
②⑥□□ |⑤-⑥-|
10
□①⑥③ |①-②-|
□⑤□⑦ |③-④-|
□□⑧□ |⑤-⑥-|
④□②□ |⑦-⑧-|
11
②③④⑤ |①-②-|
□□□□ |--③-|
□□□□ |--④-|
□①□□ |--⑤-|
12
□□④□ |--①-|
□□③④ |--②-|
①②□□ |③---|
□①□□ |④---|
13
③①□① |--①-|
□□□⑤ |--②-|
□④□□ |③-④-|
□□⑥② |⑤-⑥-|
14
④⑥①□ |①-②-|
⑦□⑤□ |③-④-|
□⑧□□ |⑤-⑥-|
□②□③ |⑦-⑧-|
15
②③④⑤ |①-②-|
□□□□ |--③-|
□□□□ |--④-|
□□①□ |--⑤-|
16
□□④□ |--①-|
□□③④ |--②-|
①②□□ |③---|
□①□□ |④---|
17
□□□⑥ |--①-|
①①⑤□ |--②-|
□④□② |③-④-|
③□□□ |⑤-⑥-|
18
□③①□ |①---|
③□□① |②---|
②□□④ |③---|
□②④□ |④---|
19
①□①□ |--①-|
□□⑤⑥ |--②-|
③④□□ |③-④-|
□□□② |⑤-⑥-|
20
①①②② |①---|
①①④④ |②---|
③③②② |③---|
③③④④ |④---|
21
①①□□ |--①-|
□□□□ |--②-|
□□□□ |③-④-|
②□□□ |⑤-⑥-|

⑥□□□
□⑤□□
□□④□
□□□③
22
□②①□ |①---|
④□□③ |②---|
①□□② |③---|
□③④□ |④---|
23
□□□□ |①---|
□①①□ |----|
□①①□ |----|
□□□□ |----|
24
①②③⑥ |--①-|
□⑤□□ |②-③-|
□□④□ |--④-|
□①②③ |⑤-⑥-|
25
③①⑤□ |①---|
①□□⑤ |②---|
⑤□□② |③-④-|
□⑤②④ |--⑤-|
26
②①□② |--①-|
①□③□ |--②-|
□④□① |--③-|
□□①⑤ |④-⑤-|
27
⑥□③⑥ |--①-|
□②□④ |②-③-|
①□⑤□ |④-⑤-|
□□□□ |--⑥-|
28
□①⑥□ |--①-|
①⑤②□ |②-③-|
□③□② |--④-|
③□□④ |⑤-⑥-|
29
③①⑤□ |①---|
⑤□□② |②---|
①□□⑤ |③-④-|
□⑤②④ |--⑤-|
30
②①□② |--①-|
□□③① |--②-|
①④□□ |--③-|
□□①⑤ |④-⑤-|
31
□②③□ |--①-|
①⑥⑥④ |②-③-|
□⑥⑥□ |④-⑤-|
□□⑤□ |--⑥-|
32
⑤③①⑤ |--①-|
②⑤⑤④ |②-③-|
③□□① |④---|
□②④□ |⑤---|
33
⑤②①⑤ |①---|
□□□□ |②---|
②⑤⑤① |③-④-|
③③④④ |--⑤-|
34
□□①□ |--①-|
④②□⑥ |②-③-|
□□□□ |④-⑤-|
⑤□③⑦ |⑥-⑦-|
35
□⑤⑤□ |①---|
□①②□ |②---|
①□④② |③-④-|
□③□□ |--⑤-|
36
□□□□ |--①-|
③□④□ |②-③-|
□②□⑥ |④-⑤-|
①□⑦⑤ |⑥-⑦-|
37
①②①② |①---|
②①②① |②---|
□□□□ |③-④-|
③③④④ |--⑤-|

⑤□⑤□
□□□□
□⑤□⑤
□□□□
38
□□⑥□ |--①-|
□①□④ |②-③-|
②□⑤□ |④-⑤-|
□③□⑦ |⑥-⑦-|
39
□③⑤□ |--①-|
□□②② |--②-|
①①□□ |③-④-|
□④⑥□ |⑤-⑥-|
40
□⑤⑤□ |--①-|
①②③④ |②-③-|
①②③④ |④---|
□⑤⑤□ |⑤---|
41
□③□② |①---|
①□□□ |②---|
□□□② |③-④-|
①□④□ |--⑤-|

□□□□
⑤□□□
□□□□
□⑤□□
42
□□⑥① |--①-|
□⑦①□ |---②③④|
②③④⑤ |⑤-⑥-|
□□⑧□ |⑦-⑧-|
43
□□④① |--①-|
②⑦⑦□ |②-③-|
□⑤□□ |④-⑤-|
□□⑥③ |⑥-⑦-|
44
□□□④ |--①-|
①□□② |②---|
①□□② |③---|
□③③□ |④---|
45
①①□□ |①---|
③③□④ |②-③-|
⑤⑤②□ |④---|
□□□□ |⑤---|
46
①①⑤③ |①-②-|
④④⑦□ |③-④-|
⑥⑥②□ |⑤---|
□□□□ |⑥-⑦-|
47
①①□② |①---|
③③□□ |②-③-|
⑥⑥⑦④ |④--⑤|
□□⑤□ |⑥-⑦-|
48
①①④④ |①--②|
③③②② |--③-|
⑤⑤□□ |④---|
□□□□ |⑤---|
49
①①□② |①---|
③③⑤□ |②-③-|
⑥⑥□④ |④-⑤-|
□□⑦□ |⑥-⑦-|
50
□□③□ |①-②-|
⑤⑤⑦① |③-④-|
⑥⑥□④ |⑤---|
②②□□ |⑥-⑦-|
51
①①□□ |①---|
□②□□ |②---|
□□③□ |③---|
□□□④ |④---|
52
④④①③ |--①-|
②□⑥⑥ |②-③-|
⑤⑤③① |④-⑤-|
□②⑦⑦ |⑥-⑦-|
53
□□□⑥ |--①-|
①①⑤□ |--②-|
□④□② |③-④-|
③□□□ |⑤-⑥-|
54
□③①□ |①---|
③□□① |②---|
②□□④ |③---|
□②④□ |④---|
55
①□①□ |--①-|
□□⑤⑥ |--②-|
③④□□ |③-④-|
□□□② |⑤-⑥-|
56
①①②② |①---|
①①④④ |②---|
③③②② |③---|
③③④④ |④---|
57
①①□□ |--①-|
□□□□ |--②-|
□□□□ |③-④-|
②□□□ |⑤-⑥-|

⑥□□□
□⑤□□
□□④□
□□□③
58
□②①□ |①---|
④□□③ |②---|
①□□② |③---|
□③④□ |④---|
59
□□□□ |①---|
□①①□ |----|
□①①□ |----|
□□□□ |----|
60
①②③⑥ |--①-|
□⑤□□ |②-③-|
□□④□ |--④-|
□①②③ |⑤-⑥-|
61
③①⑤□ |①---|
①□□⑤ |②---|
⑤□□② |③-④-|
□⑤②④ |--⑤-|
62
②①□② |--①-|
①□③□ |--②-|
□④□① |--③-|
□□①⑤ |④-⑤-|
63
⑥□③⑥ |--①-|
□②□④ |②-③-|
①□⑤□ |④-⑤-|
□□□□ |--⑥-|
64
□①⑥□ |--①-|
①⑤②□ |②-③-|
□③□② |--④-|
③□□④ |⑤-⑥-|
65
③①⑤□ |①---|
⑤□□② |②---|
①□□⑤ |③-④-|
□⑤②④ |--⑤-|
66
②①□② |--①-|
□□③① |--②-|
①④□□ |--③-|
□□①⑤ |④-⑤-|
67
□②③□ |--①-|
①⑥⑥④ |②-③-|
□⑥⑥□ |④-⑤-|
□□⑤□ |--⑥-|
68
⑤③①⑤ |--①-|
②⑤⑤④ |②-③-|
③□□① |④---|
□②④□ |⑤---|
69
⑤②①⑤ |①---|
□□□□ |②---|
②⑤⑤① |③-④-|
③③④④ |--⑤-|
70
□□①□ |--①-|
④②□⑥ |②-③-|
□□□□ |④-⑤-|
⑤□③⑦ |⑥-⑦-|
71
□⑤⑤□ |①---|
□①②□ |②---|
①□④② |③-④-|
□③□□ |--⑤-|
72
□□□□ |--①-|
③□④□ |②-③-|
□②□⑥ |④-⑤-|
①□⑦⑤ |⑥-⑦-|
73
①②①② |①---|
②①②① |②---|
□□□□ |③-④-|
③③④④ |--⑤-|

⑤□⑤□
□□□□
□⑤□⑤
□□□□
74
□□⑥□ |--①-|
□①□④ |②-③-|
②□⑤□ |④-⑤-|
□③□⑦ |⑥-⑦-|
75
□③⑤□ |--①-|
□□②② |--②-|
①①□□ |③-④-|
□④⑥□ |⑤-⑥-|
76
□⑤⑤□ |--①-|
①②③④ |②-③-|
①②③④ |④---|
□⑤⑤□ |⑤---|
77
□③□② |①---|
①□□□ |②---|
□□□② |③-④-|
①□④□ |--⑤-|

□□□□
⑤□□□
□□□□
□⑤□□
78
②②□① |--①-|
□□①③ |--②-|
□④□□ |--③-|
□□⑤□ |④-⑤-|
79
③③①□ |--①-|
□□□□ |②---|
□□□□ |③---|
②□□□ |--④-|

□□④□
④□□□
□□□④
□④□□
80
□②③③ |--①-|
④④①② |--②-|
②①⑤⑤ |--③-|
□□②□ |④-⑤-|
81
□□□□ |①---|
□□□□ |----|
□□□□ |----|
①①□□ |----|
最終更新:2024年09月14日 15:22