アットウィキロゴ
BPM:182
1
□□□① |----|
□□□□ |----|
□□□□ |----|
□□□□ |①---|
2
②□⑥□ |①---|
④①③□ |--②-|
②□□① |③-④-|
①□⑤□ |⑤-⑥-|
3
□□⑥② |①---|
⑤□□□ |--②-|
□③①② |③-④-|
④①□① |⑤-⑥-|
4
□□□② |①---|
⑤③①④ |--②-|
①□□② |③-④-|
□⑥□① |⑤-⑥-|
5
②⑥②④ |①---|
□□□□ |--②-|
□①③□ |③-④-|
①□①⑤ |⑤-⑥-|
6
②□⑥□ |①---|
④①③□ |--②-|
②□□① |③-④-|
①□⑤□ |⑤-⑥-|
7
□□⑥② |①---|
⑤□□□ |--②-|
□③①② |③-④-|
④①□① |⑤-⑥-|
8
□□□② |①---|
⑤③①④ |--②-|
①□□② |③-④-|
□⑥□① |⑤-⑥-|
9
②□□② |①---|
□□□□ |--②-|
②①③② |③---|
①□①□ |--④-|

□□□□
□□□□
□□□□
□□④□
10
⑤②□④ |①-②-|
①□□□ |③-④-|
□□□③ |--⑤-|
⑦□⑥□ |⑥-⑦-|
11
□③③□ |①-②-|
③①①③ |--③-|
□②②④ |----|
□□□□ |--④-|
12
②□④① |①-②-|
□□□⑤ |③-④-|
□□□□ |--⑤-|
⑥③□⑦ |⑥-⑦-|
13
□□□□ |①-②-|
□②②□ |--③-|
③①①③ |----|
④③③□ |--④-|
14
□①②⑤ |①-②-|
⑥□□④ |③-④-|
□□□□ |--⑤-|
□□⑦③ |⑥-⑦-|
15
□③③□ |①-②-|
□①①□ |--③-|
③②②③ |----|
④□□□ |--④-|
16
□②□① |①---|
②□□□ |②---|
□□①③ |③---|
□□□③ |④-⑤-|

□□□⑤
□□□□
□□□□
④□□□
17
□□□□ |①-②-|
③②②③ |--③-|
□①①□ |----|
□③③④ |--④-|
18
④②□⑤ |①-②-|
④□□□ |③-④-|
①□□□ |--⑤-|
⑥□③⑦ |⑥-⑦-|
19
□③□□ |①-②-|
③①②□ |--③-|
④②①③ |----|
□□③□ |--④-|
20
①④②⑤ |①-②-|
④□□□ |③-④-|
□□□□ |--⑤-|
⑥□⑦③ |⑥-⑦-|
21
□□③□ |①-②-|
□②①③ |--③-|
③①②□ |----|
□③□□ |--④-|

□□□□
□□□□
□④□□
□□□□
22
①④④② |①-②-|
⑤□□□ |③-④-|
□□□⑥ |--⑤-|
⑦□③□ |⑥-⑦-|
23
□③□□ |①-②-|
□①②③ |--③-|
③②①□ |----|
④□③□ |--④-|
24
④②①① |①---|
□□□□ |②---|
②□□③ |③---|
□□③⑤ |④-⑤-|
25
□□③□ |①-②-|
③②①□ |--③-|
□①②③ |----|
□③□□ |----|
26
④②⑤① |①-②-|
□□□□ |--③-|
□□□□ |④-⑤-|
□⑥③□ |--⑥-|
27
□③□① |①---|
③②①② |②---|
②①②③ |③---|
①□③④ |--④-|
28
②□□③ |--①-|
□④⑤□ |②-③-|
□□□□ |④-⑤-|
⑥①□⑦ |⑥-⑦-|
29
□①②□ |①-②-|
①③□② |--③-|
③③③③ |----|
④③□④ |--④-|
30
④①①⑤ |①---|
③②③② |②---|
②③②③ |③--④|
□④⑤□ |--⑤-|
31
④□⑥□ |--①-|
⑥□⑤② |②-③-|
③⑤□⑥ |④--⑤|
□⑥□① |--⑥-|
32
⑥□□② |--①-|
□④□□ |②-③④|
③□□□ |--⑤-|
⑤⑦①□ |⑥-⑦-|
33
□②□□ |①--②|
□③①③ |--③-|
②③③③ |----|
□□③① |--④-|

□□□□
□□□□
□□□□
④□□④
34
④①①⑤ |①---|
③②③② |②---|
②③②③ |③--④|
□④⑤□ |--⑤-|
35
④□⑥□ |--①-|
⑥□⑤② |②-③-|
③⑤□⑥ |④--⑤|
□⑥□① |--⑥-|
36
④□□□ |--①-|
□⑥□② |②-③-|
③□⑤□ |④-⑤-|
⑦□⑦① |⑥-⑦-|
37
②①□① |①---|
□□□③ |--②-|
②□□□ |③---|
□④□③ |--④-|
38
⑥②⑤⑤ |①-②-|
⑥②□⑤ |--③-|
□①④□ |④-⑤-|
□□③③ |--⑥-|
39
□⑥④⑥ |--①-|
□□①④ |②-③-|
②⑤□□ |④-⑤-|
⑤③□□ |--⑥-|
40
②□□□ |--①-|
□⑥□④ |②-③-|
③□□① |④-⑤-|
⑦□⑤⑦ |⑥-⑦-|
41
②①①② |①---|
□□③□ |--②-|
□③□③ |③---|
④□③④ |--④-|
42
④①①⑤ |①---|
③②③② |②---|
②③②③ |③--④|
□④⑤□ |--⑤-|
43
④□⑥□ |--①-|
⑥□⑤② |②-③-|
③⑤□⑥ |④--⑤|
□⑥□① |--⑥-|
44
□④⑥□ |--①-|
□□□□ |②-③-|
□□②□ |④-⑤-|
③⑦⑤① |⑥-⑦-|
45
□⑧⑦⑥ |①-②-|
②⑤⑤① |③-④-|
②④③① |⑤-⑥-|
④□□③ |⑦-⑧-|
46
□⑦⑦□ |①-②-|
③□⑥① |③-④-|
⑧⑤□⑧ |⑤⑥-⑦|
□④②□ |--⑧-|
47
□□⑤□ |--①-|
②□□⑥ |②-③-|
□③④□ |④-⑤-|
①□□⑦ |⑥-⑦-|
48
③□□□ |--①-|
④②②⑦ |②---|
⑤□□□ |③④⑤-|
□①⑥□ |⑥-⑦-|
49
⑥⑥□① |--①-|
⑤⑤□□ |②-③-|
④④②□ |④--⑤|
□□□③ |--⑥-|
50
□□①① |----|
②□□② |①---|
③□③□ |②--③|
④□□④ |--④-|
51
④④④④ |--①-|
□②□□ |②-③-|
□□□□ |④---|
□①③□ |----|
52
□□□□ |--①-|
②④⑥□ |②-③-|
□□⑦⑦ |④-⑤-|
①③⑤□ |⑥-⑦-|
53
②②①① |①---|
□□□□ |②-③-|
□④□□ |----|
③③□□ |--④-|
54
④□□□ |①-②-|
⑤②③□ |③---|
⑥□①□ |④--⑤|
□□□□ |--⑥-|
55
□④⑤⑥ |--①-|
□□②□ |②-③-|
□③□□ |④--⑤|
□□①□ |--⑥-|
56
□⑥□□ |--①-|
②□④⑦ |②-③④|
⑤□③□ |--⑤-|
①□□□ |⑥-⑦-|
57
□□□□ |①--②|
□□□□ |--③-|
□④□□ |----|
□①②③ |--④-|
58
□②②③ |①---|
□□①④ |②---|
□□□⑤ |③--④|
□□□□ |--⑤-|
59
⑥⑤④□ |--①-|
□②□□ |②-③-|
□□③□ |④--⑤|
□①□□ |--⑥-|
60
□□□□ |--①-|
②⑥□④ |②-③-|
⑤①⑦③ |④-⑤-|
□□□□ |⑥-⑦-|
61
□②□□ |①---|
□□①□ |--②-|
□③□□ |③---|
□□□□ |----|
62
□□□□ |①---|
①□□① |----|
①□□① |----|
□□□□ |----|
63
③②②④ |①---|
①②②① |----|
□①①□ |②--③|
①③④① |--④-|
64
④□⑥□ |--①-|
⑥□⑤② |②-③-|
③⑤□⑥ |④--⑤|
□⑥□① |--⑥-|
65
⑥□□② |--①-|
□④□□ |②-③④|
③□□□ |--⑤-|
⑤⑦①□ |⑥-⑦-|
66
□②□□ |①--②|
□③①③ |--③-|
②③③③ |----|
□□③① |----|
67
③①①④ |----|
①②②① |①---|
①②②① |②--③|
□④③□ |--④-|
68
④□⑥□ |--①-|
⑥□⑤② |②-③-|
③⑤□⑥ |④--⑤|
□⑥□① |--⑥-|
69
④□□□ |--①-|
□⑥□② |②-③-|
③□⑤□ |④-⑤-|
⑦□⑦① |⑥-⑦-|
70
②①□① |①---|
□□□③ |--②-|
②□□□ |③---|
□④□③ |--④-|
71
⑥②⑤⑤ |①-②-|
⑥②□⑤ |--③-|
□①④□ |④-⑤-|
□□③③ |--⑥-|
72
□⑥④⑥ |--①-|
□□①④ |②-③-|
②⑤□□ |④-⑤-|
⑤③□□ |--⑥-|
73
②□□□ |--①-|
□⑥□④ |②-③-|
③□□① |④-⑤-|
⑦□⑤⑦ |⑥-⑦-|
74
②①①② |①---|
□□③□ |--②-|
□③□③ |③---|
④□③④ |--④-|
75
④①①⑤ |①---|
③②③② |②---|
②③②③ |③--④|
□④⑤□ |--⑤-|
76
④□⑥□ |--①-|
⑥□⑤② |②-③-|
③⑤□⑥ |④--⑤|
□⑥□① |--⑥-|
77
□④⑥□ |--①-|
□□□□ |②-③-|
□□②□ |④-⑤-|
③⑦⑤① |⑥-⑦-|
78
□□□□ |①-②-|
②⑤⑤① |③-④-|
②④③① |⑤---|
④□□③ |----|
79
⑤③①⑤ |①-②-|
③□□① |③-④-|
②⑤⑤④ |⑤---|
□②④□ |----|
最終更新:2024年09月14日 15:21