アットウィキロゴ
BPM:147
1
□①②□ |----|
□□□□ |----|
□□□□ |----|
□□□□ |--①②|
2
④□□① |①---|
□③□□ |②---|
□⑤②□ |③---|
□□□□ |④-⑤-|
3
□□□① |--①-|
□②□□ |--②-|
□□□□ |----|
□□□□ |----|
4
□③□① |①---|
□④②□ |②---|
⑤□□□ |③---|
□□□□ |④-⑤-|
5
□□□□ |----|
□□□□ |----|
□□□□ |----|
□□□□ |----|
6
□④□□ |①---|
□⑥③□ |②-③-|
②□⑤① |④---|
□□□□ |⑤-⑥-|
7
④③①□ |①---|
□□□□ |②-③-|
□□□② |④---|
□□□□ |⑤-⑥-|

□□⑥□
□□□□
□⑤□□
□□□□
8
□□□② |①---|
□□□① |②---|
□□□③ |③---|
□□□□ |④-⑤-|

⑤⑤□□
□□□④
□□□□
□□□□
9
□□③① |--①-|
②⑤⑤□ |②-③-|
④□□□ |--④-|
□□□□ |⑤---|
10
□④□□ |①---|
③⑥□① |②-③-|
□□□□ |④---|
□⑤②□ |⑤-⑥-|
11
⑤④□① |①---|
□□□□ |②-③-|
③□□□ |④---|
□⑥②□ |⑤-⑥-|
12
③□□① |--①-|
□⑤□□ |②---|
□②④□ |③-④-|
□□□□ |--⑤-|
13
③□②□ |①---|
□□④□ |②---|
□⑤□□ |③-④-|
□□①□ |⑤---|
14
□④□□ |①---|
□⑥③□ |②-③-|
②□⑤① |④---|
①②④⑤ |⑤-⑥-|
15
④③①□ |①---|
□□□□ |②-③-|
□□□② |④---|
①②④□ |⑤-⑥-|

□□⑥□
□□□□
□⑤□□
□□□⑤
16
□□□② |①---|
□③□① |②-③-|
②□□④ |④---|
①④□□ |⑤-⑥-|

⑥⑥□□
□□□⑤
□⑤□□
□□□□
17
⑥□④② |①-②-|
③⑦⑦□ |③-④-|
□□③⑦ |⑤-⑥-|
□□①⑤ |⑦---|
18
□④□□ |①---|
③⑥□① |②-③-|
①②④⑤ |④---|
□⑤②□ |⑤-⑥-|
19
③④□① |①---|
⑤□□□ |②-③-|
①②④⑤ |④---|
□⑥②□ |⑤-⑥-|
20
④□□② |①-②-|
□⑥□□ |③---|
③⑤③⑤ |④-⑤-|
□□□① |--⑥-|
21
⑤①②□ |①-②-|
⑥□□⑥ |③-④-|
⑥□□⑥ |⑤---|
□④③⑤ |⑥---|
22
④□□① |①---|
□③□□ |②---|
□⑤②□ |③---|
①②③④ |④-⑤-|
23
⑧□⑥② |①-②-|
□④□□ |③-④-|
□□□□ |⑤-⑥-|
①③⑤⑦ |⑦-⑧-|
24
□④□① |①---|
③□②□ |②---|
①②③④ |③---|
□□⑤□ |④-⑤-|
25
⑥□④□ |①-②-|
□⑧⑨② |③-④-|
①③⑤⑦ |⑤-⑥-|
□□□□ |⑦-⑧⑨|
26
④□□□ |①---|
□□□① |②---|
③⑤②□ |③---|
①②③④ |④-⑤-|
27
□②□□ |①-②-|
□□④③ |③-④-|
□□□① |⑤-⑥-|
□□□□ |⑦-⑧-|

⑥□□□
□⑧□□
□□□⑦
□□□⑤
28
□③□① |①---|
□④②□ |②---|
⑤□□□ |③---|
①②③④ |④-⑤-|
29
□□□② |①-②-|
④□⑥□ |③-④-|
□⑦⑦① |⑤-⑥-|
③□⑤□ |⑦---|
30
□④□⑤ |①---|
□□□③ |②-③-|
①□⑥□ |④---|
□①□② |⑤-⑥-|
31
□□□□ |--①-|
③□□⑤ |--②-|
□□□□ |③-④-|
①②④⑥ |⑤-⑥-|
32
□□④□ |①---|
□②②□ |②---|
□①①③ |③-④-|
□⑤□□ |--⑤-|
33
④②□③ |①-②-|
⑥□□⑤ |--③-|
□□①⑦ |④-⑤-|
□□□□ |⑥-⑦-|
34
□⑤□⑥ |①-②-|
□□□④ |③-④-|
②□⑦□ |⑤---|
□①□③ |⑥-⑦-|
35
□□□□ |--①-|
③□□⑤ |--②-|
□□□□ |③-④-|
①②④⑥ |⑤-⑥-|
36
□①①□ |①---|
□④②□ |②-③-|
□⑥⑥□ |④-⑤-|
□③⑤□ |--⑥-|
37
①□④① |--①-|
□③□□ |--②-|
②□□② |----|
□□□□ |③-④-|
38
□□⑤□ |①---|
②□③□ |②-③-|
□④□□ |----|
□□□① |④-⑤-|
39
□⑤⑤□ |①---|
□②□③ |②-③-|
□④④□ |--④-|
□□□① |--⑤-|
40
□□□□ |①---|
□②③④ |②③④-|
⑤□⑥□ |----|
□□□① |⑤-⑥-|
41
□②□③ |①-②-|
□□□□ |③---|
□□□□ |④---|
□□□① |⑤-⑥-|

□□□□
□□□□
□④□□
□⑥□⑤
42
①□□□ |①---|
③⑤②□ |②-③-|
□□□④ |----|
□□□□ |④-⑤-|
43
①□□□ |①---|
□□□⑤ |②-③-|
②④③□ |----|
□□□□ |④-⑤-|
44
①□□⑤ |①---|
□⑤□□ |②-③-|
②□⑤③ |----|
□④□□ |④-⑤-|
45
③①②④ |--①-|
②□①② |--②-|
①□□□ |--③-|
④④③③ |④---|
46
□□□□ |①-②-|
②②②② |----|
①①①① |----|
□□□□ |----|
47
①②③□ |----|
□□□□ |----|
①②③□ |--①-|
□□□□ |②-③-|
48
□□□② |①---|
□□□① |②---|
□□□③ |③---|
①②③□ |④-⑤-|

⑤⑤□□
□□□④
□□□□
□□□④
49
⑥□④② |①-②-|
③⑦⑦□ |③-④-|
□□□□ |⑤-⑥-|
①③⑤⑦ |⑦---|
50
□④□□ |①---|
③⑥□① |②-③-|
①②④⑤ |④---|
□⑤②□ |⑤-⑥-|
51
③④□① |①---|
⑤□□□ |②-③-|
①②④⑤ |④---|
□⑥②□ |⑤-⑥-|
52
④□□② |①-②-|
□⑥□□ |③---|
③⑤③⑤ |④-⑤-|
□□□① |--⑥-|
53
③①②□ |①---|
□⑤④□ |②---|
□④⑤□ |③-④-|
□②①③ |⑤---|
54
□⑥①② |①---|
⑤□③□ |②-③-|
□④□① |④---|
①②④⑤ |⑤-⑥-|
55
②□①□ |①---|
□③□② |②-③-|
□□④① |④---|
□□□④ |⑤-⑥-|

□□⑥□
□□□□
□⑤□⑤
□□□□
56
□□□② |①---|
□③□① |②-③-|
②□□④ |④---|
①④□□ |⑤-⑥-|

⑥⑥□□
□□□⑤
□⑤□□
□□□□
57
⑥□④② |①-②-|
③⑦⑦□ |③-④-|
□□③⑦ |⑤-⑥-|
□□①⑤ |⑦---|
58
□④□□ |①---|
③⑥□① |②-③-|
①②④⑤ |④---|
□⑤②□ |⑤-⑥-|
59
③④④① |①---|
⑤□④□ |②-③-|
①②□⑤ |④---|
□⑥②□ |⑤-⑥-|
60
④□□② |①-②-|
□⑥□□ |③---|
③⑤③⑤ |④-⑤-|
□□□① |--⑥-|
61
⑤①②□ |①-②-|
⑥□□⑥ |③-④-|
⑥□□⑥ |⑤---|
□④③⑤ |⑥---|
62
④□□① |①---|
□③□□ |②---|
□⑤②□ |③---|
①②③④ |④-⑤-|
63
⑧□⑥② |①-②-|
□④□□ |③-④-|
□□□□ |⑤-⑥-|
①③⑤⑦ |⑦-⑧-|
64
□④□① |①---|
③□②□ |②---|
①②③④ |③---|
□□⑤□ |④-⑤-|
65
⑥□④□ |①-②-|
□□□② |③-④-|
①③⑤⑦ |⑤-⑥-|
⑧□□□ |⑦-⑧-|
66
⑤②②□ |①-②-|
□①①□ |③---|
④⑥③□ |④---|
□③④⑤ |⑤-⑥-|
67
⑥②□□ |①-②-|
□⑧④□ |③-④-|
□□□□ |⑤-⑥-|
①③⑤⑦ |⑦-⑧-|
68
□③□① |①---|
□□②□ |②---|
①②③□ |③---|
□□□□ |④-⑤-|

□□□□
□④□□
⑤□□④
□□□□
69
③□□③ |①---|
①④④② |②---|
□④④□ |③---|
①□□② |④---|
70
□□□□ |----|
□□□□ |----|
□□□□ |----|
□□□□ |----|
最終更新:2024年09月14日 15:22