アットウィキロゴ
シープドリーミン
テヅカ feat. 大西あみみ

BASIC

Level: 4
BPM: 220
Notes: 277

1
口口口口 |----|
口口口口 |----|
口口口口 |----|
口口口口 |----|
2
口口口口 |①---|
口口口口 |----|
②口口口 |②---|
①口口口 |----|
3
口②②口 |①---|
①口口口 |----|
口口口口 |②---|
口口口口 |----|
4
口口口口 |①---|
口口口口 |----|
口口口口 |②---|
口口②① |----|
5
口口口口 |①---|
口口口口 |----|
①②口口 |②---|
口口口口 |----|
6
口口口口 |①---|
口口②① |----|
口口口口 |②---|
口口口口 |----|
7
①②口口 |①---|
口口口口 |----|
口口口口 |②---|
口口口口 |----|
8
口口口口 |①---|
口口口口 |----|
②口口① |②---|
口口口口 |----|
9
②口口① |①---|
口口口口 |----|
口口口口 |②---|
口口口口 |----|
10
口口口口 |①---|
口②①口 |----|
口口口口 |②---|
口口口口 |----|
11
口口口口 |①---|
口口口口 |----|
口口口口 |----|
口①①口 |----|
12
口口口口 |①---|
口口②口 |----|
口①口口 |②---|
口口口口 |----|
13
口口口口 |①---|
口①口口 |----|
口口②口 |②---|
口口口口 |----|
14
口口口② |①---|
口口口口 |----|
口口口口 |②---|
①口口口 |----|
15
①口口口 |①---|
口口口口 |----|
口口口口 |②---|
口口口② |----|
16
口口口口 |①---|
口②口口 |----|
①口口口 |②---|
口口口口 |----|
17
口口口口 |①---|
口口①口 |----|
口口口② |②---|
口口口口 |----|
18
口①①口 |①---|
口口口口 |----|
口口口口 |②---|
口②②口 |----|
19
口口口口 |----|
口口口口 |----|
口口口口 |----|
口口口口
20
口口口口 |----|
口①①口 |①---|
口①①口 |----|
口口口口
21
口口口口 |----|
口口口口 |----|
口口口口 |①---|
口①口口
22
口口口口 |----|
口口口口 |----|
口口口口 |----|
口口口口
23
口口①口 |①---|
口口口口 |----|
口口口口 |----|
口口口口
24
口口口口 |----|
①口口口 |①---|
①口口口 |----|
口口口口
25
口口口口 |----|
口口口① |①---|
口口口① |----|
口口口口
26
口口口口 |----|
口口口口 |①---|
口①①口 |----|
口口口口
27
口①①口 |----|
口口口口 |①---|
口口口口 |----|
口口口口
28
口口口口 |----|
口口口① |①---|
口口口① |----|
口口口口
29
口口口口 |----|
①口口口 |①---|
①口口口 |----|
口口口口
30
口口口口 |----|
口口口口 |①---|
口口口口 |----|
口①①口
31
口口口口 |----|
口①①口 |①---|
口口口口 |----|
口口口口
32
口口口口 |----|
口口口口 |①---|
口口口口 |----|
①口口①
33
口口②① |----|
口口口口 |①---|
口口口口 |②---|
口口口口
34
②①口口 |①---|
口口口口 |②---|
口口口口 |----|
口口口口
35
口口口口 |----|
口口口口 |----|
口口口口 |----|
口口口口
36
口口口口 |----|
口口口口 |①---|
①口口① |----|
口口口口
37
口口口口 |----|
①口口① |----|
口口口口 |①---|
口口口口
38
口口口口 |----|
口口口口 |----|
口口口口 |----|
口口口口
39
①口口① |①---|
口口口口 |----|
口口口口 |----|
口口口口
40
口口口口 |----|
口①口口 |①---|
口①口口 |----|
口口口口
41
口口口口 |----|
口口①口 |①---|
口口①口 |----|
口口口口
42
口口口口 |----|
口口口口 |①---|
口口口口 |②---|
①②口口
43
口口口口 |①---|
口口口口 |②---|
口口口口 |----|
口口①②
44
口口口口 |----|
①口口① |①---|
口口口口 |----|
口口口口
45
口口口口 |----|
口口口口 |①---|
①口口① |----|
口口口口
46
口①①口 |----|
口口口口 |①---|
口口口口 |----|
口口口口
47
口口口口 |----|
口口口口 |①---|
口口口口 |----|
口①①口
48
口口口口 |----|
口①①口 |①---|
口口口口 |----|
口口口口
49
①②口口 |----|
口口口口 |①---|
口口口口 |②---|
口口口口
50
口口①② |①---|
口口口口 |②---|
口口口口 |----|
口口口口
51
口口口口 |----|
口口口口 |----|
口口口口 |----|
口口口口 |----|
52
②口口② |①---|
口口口口 |----|
口①①口 |②---|
口口口口 |----|
53
口口口口 |①---|
口口口口 |②---|
①②③口 |③---|
口口口口 |----|
54
口口口口 |①---|
口③②① |②---|
口口口口 |③---|
口口口口 |----|
55
①②③口 |①---|
口口口口 |②---|
口口口口 |③---|
口口口口 |----|
56
口口口口 |①---|
②口口② |----|
口口口口 |②---|
①口口① |----|
57
②口口③ |①---|
口口口口 |----|
口①①口 |②---|
口口口口 |③---|
58
口口口口 |①---|
口①①口 |----|
口口口口 |----|
口口口口 |----|
59
口口口口 |①---|
口口口口 |----|
口口口口 |----|
口①①口
60
口口口口 |----|
口口口口 |----|
口口口口 |----|
口口口口
61
口口口口 |----|
口口口口 |----|
口口口口 |----|
口口口口
62
口口口口 |----|
口口口口 |----|
口口口口 |----|
口口口口 |----|
63
口口口口 |①---|
口口②口 |----|
口①口口 |②---|
口口口口 |----|
64
口口口口 |①---|
②口口② |----|
口口口口 |②---|
①口口① |----|
65
④③②① |①---|
口口口口 |②---|
口口口口 |③---|
口口口口 |④---|
66
口口口口 |----|
口口口口 |----|
口口口口 |----|
口口口口 |----|
67
口口口口 |①---|
口口口口 |----|
口口口口 |----|
口①①口 |----|
68
口②②口 |①---|
口口口口 |----|
口①①口 |②---|
口口口口 |----|
69
口口口口 |①---|
口③②① |②---|
口口口口 |③---|
口口口口 |----|
70
口口口口 |①---|
口口口口 |②---|
①②③口 |③---|
口口口口 |----|
71
①口口① |①---|
②口口② |----|
口口口口 |②---|
口口口口 |----|
72
口口口口 |①---|
口口口口 |----|
①口③① |②---|
口②口口 |③---|
73
口口②口 |①---|
口①口口 |②---|
口口口口 |----|
口口口口 |----|
74
口口②② |①---|
口口口口 |----|
①①口口 |②---|
口口口口 |----|
75
口口口口 |①---|
①②③口 |②---|
口口口口 |③---|
口口口口 |----|
76
口②②口 |①---|
口口口口 |----|
口①①口 |②---|
口口口口 |----|
77
口口口口 |①---|
①②③口 |②---|
口口口口 |③---|
口口口口 |----|
78
口口口口 |①---|
口口口口 |②---|
口③②① |③---|
口口口口 |----|
79
①口口① |①---|
②口口② |----|
口口口口 |②---|
口口口口 |----|
80
口口口口 |①---|
口口口口 |----|
①口口① |②---|
口②口口 |----|
81
口口口口 |①---|
口②口口 |----|
口口①口 |②---|
口口口口 |----|
82
①口口① |①---|
口口②口 |----|
口口③口 |②---|
口口口口 |③---|
83
口口口口 |①---|
②口口② |----|
口口口口 |②---|
口口①口 |----|
84
口①口口 |①---|
口②口口 |②---|
口③口口 |③---|
口④口口 |④---|
85
口口②口 |①---|
口口③口 |----|
口口口口 |②---|
口口①口 |③---|
86
口口口口 |①---|
口口口口 |----|
③口①口 |②---|
②口口口 |③---|
87
②口口口 |①---|
①口口口 |②---|
口口口口 |----|
口口口口 |----|
88
口口①口 |①---|
口口②口 |②---|
口口③口 |③---|
口口④口 |④---|
89
口②口口 |①---|
口③口口 |----|
口口口口 |②---|
口①口口 |③---|
90
口口口口 |①---|
口口口口 |----|
③①口② |②---|
口口口口 |③---|
91
口①①口 |①---|
口口口口 |----|
口口口口 |----|
口口口口 |----|
92
口口口① |①---|
口口口② |②---|
口口口③ |③---|
口口口④ |④---|
93
口②口口 |①---|
口③口口 |----|
口口口口 |②---|
口口①口 |③---|
94
口口口口 |①---|
口口口口 |----|
口①③口 |②---|
口口②口 |③---|
95
口口②口 |①---|
口口①口 |②---|
口口口口 |----|
口口口口 |----|
96
④口口口 |①---|
③口口口 |②---|
②口口口 |③---|
①口口口 |④---|
97
口①口口 |①---|
口口口口 |----|
口口口③ |②---|
口口口② |③---|
98
口②②口 |①---|
口③③① |----|
口口口口 |②---|
口口口口 |③---|
99
口口口口 |①---|
口口口口 |----|
口①①口 |----|
口口口口 |----|
100
口①口口 |①---|
口②口口 |②---|
口③口口 |③---|
口④口口 |④---|
101
口口口口 |①---|
口口口口 |----|
口口口口 |----|
口口①口 |----|
102
口口口口 |----|
口口口口 |----|
口口口口 |----|
口口口口 |----|
103
口口口口 |----|
口口口口 |----|
口口口口 |----|
口口口口 |----|
104
口口①口 |①---|
口口②口 |②---|
口口③口 |③---|
口口④口 |④---|
105
口口口口 |①---|
口口口③ |----|
口口口② |②---|
口①口口 |③---|
106
②口口① |①---|
口口口口 |----|
口口口口 |②---|
口口口口 |----|
107
口口口口 |①---|
口口口口 |----|
②口口① |②---|
口口口口 |----|
108
口口口① |①---|
口口口② |②---|
口口口③ |③---|
口口口④ |④---|
109
口口口口 |①---|
口口口口 |----|
口口口口 |----|
口口①口 |----|
110
口口口口 |----|
口口口口 |----|
口口口口 |----|
口口口口 |----|
111
口口口口 |----|
口口口口 |----|
口口口口 |----|
口口口口 |----|
112
①口口口 |①---|
②口口口 |②---|
③口口口 |③---|
④口口口 |④---|
113
口口口口 |①---|
②③口口 |----|
口口口口 |②---|
口①口口 |③---|
114
口口口口 |①---|
口口①口 |----|
口口口口 |②---|
口②②口 |----|
115
④③②① |①---|
口口口口 |②---|
口口口口 |③---|
口口口口 |④---|
116
口口口口 |①---|
口口口口 |----|
口②②口 |②---|
口①①口 |----|
117
口②②③ |①---|
口①①口 |----|
口口口口 |②---|
口口口口 |③---|

accuracy: 100%
最終更新:2023年03月16日 06:39