アットウィキロゴ
シープドリーミン
テヅカ feat. 大西あみみ

ADVANCED

Level: 7
BPM: 220
Notes: 508

1
口口口口 |----|
口口口口 |----|
口口口口 |----|
口口口口 |----|
2
②②④④ |①---|
口口口口 |②---|
①①③③ |③---|
口口口口 |④---|
3
口口口口 |①---|
①②③口 |②---|
①②③口 |③---|
口口口口 |----|
4
②口口④ |①---|
口口口口 |②---|
口口口口 |③---|
①口口③ |④---|
5
口③③口 |①---|
口①②口 |②---|
口①②口 |----|
口口口口 |③---|
6
口口口口 |①---|
①口口② |②---|
③口口④ |③---|
口口口口 |④---|
7
口口口口 |----|
口口③口 |①---|
口②口口 |②---|
口口①口 |③---|
8
①③③① |①---|
口口口口 |②---|
②口口④ |③---|
口口口口 |④---|
9
口口口口 |①---|
②口口④ |②---|
口口口口 |③---|
①③③① |④---|
10
口①①口 |①---|
口②②口 |----②-|
口③③口 |----|
口口口口 |③---|
11
口③②① |----|
口③②① |①---|
口口口口 |②---|
口口口口 |③---|
12
口口口口 |①---|
②口口④ |②---|
口口口口 |③---|
①口口③ |④---|
13
口①③口 |①---|
口口口口 |②---|
口②④口 |③---|
口口口口 |④---|
14
口③④口 |①---|
口①②口 |②---|
口口口口 |③---|
口口口口 |④---|
15
①口口① |----|
②口口② |①---|
③口口③ |②---|
口口口口 |③---|
16
②②④④ |①---|
口口口口 |②---|
口口口口 |③---|
口①③口 |④---|
17
口口口口 |①---|
②②④④ |②---|
口口口口 |③---|
①口口③ |④---|
18
①口口① |①---|
口口口口 |----|
①②②① |②---|
口②②口 |----|
19
口口口口 |----|
口口口口 |----|
口口口口 |----|
口口口口
20
②口口口 |----|
口口口口 |①---|
①口口口 |②---|
口口口口
21
口口口口 |----|
口口口② |①---|
口口口口 |②---|
口口口①
22
口口口口 |①---|
③②①口 |②---|
口口口口 |③---|
口口口口
23
口口口① |①---|
口口口口 |②---|
口口口② |----|
口口口口
24
口口口口 |①---|
口口③口 |②---|
口口②口 |③---|
①口口口
25
口口①口 |①---|
口③口口 |②---|
口②口口 |③---|
口口口口
26
②①口② |①---|
③口口③ |②---|
口口口口 |③---|
口口口口
27
口口口口 |①---|
口口口口 |②---|
①口口① |----|
②口口②
28
口①口口 |----|
口口口口 |①---|
口口②口 |②---|
口口口口
29
口口②口 |①---|
口口口口 |②---|
口③口口 |③---|
口口①口
30
③口口③ |①---|
口口口口 |②---|
口口口口 |③---|
②①口②
31
口口口口 |----|
①口口① |①---|
①口口① |----|
口口口口
32
口口②口 |①---|
口口口口 |②---|
口口口口 |----|
口①口口
33
口口口口 |①---|
口③口口 |②---|
口口②口 |③---|
口口①口
34
口口口口 |①---|
口口口口 |②---|
①口口口 |----|
②口口口
35
口口①口 |----|
口口①口 |----|
口口口口 |①---|
口口口口
36
③③口口 |①---|
口口口口 |②---|
口①口口 |③---|
口①②②
37
口口口口 |----|
口口口② |①---|
口口口口 |②---|
①口口口
38
口口口口 |①---|
③②①口 |②---|
口口口口 |③---|
口口口口
39
口①①口 |①---|
口口口口 |②---|
口②②口 |----|
口口口口
40
口口口口 |①---|
口口口③ |②---|
口口口② |③---|
口口口①
41
口口口① |①---|
③口口口 |②---|
②口口口 |③---|
口口口口
42
①②②口 |①---|
口③③口 |②---|
口口口口 |③---|
口口口口
43
口口口口 |①---|
口口口口 |②---|
口①①口 |----|
口②②口
44
口口口口 |----|
②口口口 |①---|
口口口① |②---|
口口口口
45
口口口① |①---|
口口口③ |②---|
②口口口 |③---|
口口口口
46
①②②口 |①---|
口③③口 |②---|
口口口口 |③---|
口口口口
47
口口口口 |①---|
口口口口 |②---|
口①①口 |----|
口②②口
48
①口口① |①---|
口口口口 |②---|
②口口② |----|
口口口口
49
口口口口 |①---|
①②③口 |②---|
口口口口 |③---|
口口口口
50
口口口口 |①---|
口口口① |②---|
口②②口 |----|
口口口口
51
口①口口 |----|
口口口口 |----|
口口口口 |①---|
口口②口 |②---|
52
口口口④ |①---|
②口口口 |②---|
口口③口 |③---|
口①口口 |④---|
53
口①口口 |①---|
口口③口 |②---|
②口口口 |③---|
口口口④ |④---|
54
口口口④ |①---|
口口③口 |②---|
口②口口 |③---|
①口口口 |④---|
55
①口口口 |①---|
口②口口 |②---|
口口③口 |③---|
口口口④ |④---|
56
口口口口 |----|
③口口口 |①---|
口口口② |②---|
口①口口 |③---|
57
②口①③ |①---|
口口口口 |----|
口口口口 |②---|
口口口口 |③---|
58
口口口口 |①---|
口①①口 |----②-|
②口口② |----|
③口口③ |③---|
59
①口口① |①---|
口口口口 |----②-|
口②②口 |----|
口口口口
60
口口口口 |----|
口①口口 |①---|
口口口口 |----|
口口口口
61
口口口口 |----|
口口①口 |①---|
口口口口 |----|
口口口口
62
口口口口 |----|
口口口口 |①---|
口①口口 |----|
口口口口 |----|
63
③口口③ |①---|
口②口② |----②-|
口口①口 |----|
口口口口 |③---|
64
口口口口 |①---|
②口口④ |②---|
口口口口 |③---|
①口口③ |④---|
65
④④④④ |①---|
③③口口 |②---|
口口②② |③---|
口①①口 |④---|
66
口口口口 |----|
口口口口 |----|
口口口口 |----|
口口口口 |----|
67
口口口口 |①---|
口①①③ |----|
口①①口 |②---|
②口口口 |③---|
68
①①③③ |①---|
口口口口 |②---|
④④②② |③---|
口口口口 |④---|
69
口口口口 |①---|
①②③④ |②---|
口口口口 |③---|
①②③④ |④---|
70
③③①① |①---|
口口口口 |②---|
②②④④ |③---|
口口口口 |④---|
71
口口口口 |①---|
①②③④ |②---|
口口口口 |③---|
①②③④ |④---|
72
口①①口 |①---|
④口口口 |②---|
口③口口 |③---|
②口口口 |④---|
73
①口口① |①---|
口口口口 |②---|
口口口口 |----|
口②②③ |③---|
74
口口③口 |①---|
口④口② |②---|
口口①口 |③---|
口口口口 |④---|
75
①口口① |①---|
②口口② |②---|
③口口③ |③---|
口口口口 |----|
76
口口口口 |①---|
②②④④ |②---|
口口口口 |③---|
③③①① |④---|
77
④③②① |①---|
口口口口 |②---|
④③②① |③---|
口口口口 |④---|
78
口口②② |①---|
④④口口 |②---|
口口③③ |③---|
①①口口 |④---|
79
③④口口 |①---|
口口②① |②---|
③④口口 |③---|
口口②① |④---|
80
口口①口 |①---|
②③口口 |----|
口口①口 |②---|
口口口口 |③---|
81
口口口口 |①---|
口口①② |②---|
口③③口 |③---|
口口口口 |----|
82
①口口① |①---|
口②②口 |----|
①③③① |②---|
口口口口 |③---|
83
②口口② |①---|
口口口口 |②---|
口口口口 |③---|
③①①③ |----|
84
口①③口 |①---|
①④口③ |②---|
口口④② |③---|
口口②口 |④---|
85
②口口② |①---|
③口口③ |----|
①口口口 |②---|
口①口口 |③---|
86
口口②② |①---|
口口口口 |----|
①③口① |②---|
口口口口 |③---|
87
②②口口 |①---|
口口口口 |②---|
口口①口 |----|
③口口③ |③---|
88
口③①口 |①---|
③口④① |②---|
②④口口 |③---|
口②口口 |④---|
89
②口口② |①---|
③口口③ |----|
口口口① |②---|
口口①口 |③---|
90
③口口② |①---|
口口口口 |----|
①③②① |②---|
口口口口 |③---|
91
口①①口 |①---|
口口口口 |----|
口口口口 |----|
口口口口 |----|
92
口③①口 |①---|
③口④① |②---|
②④口口 |③---|
口②口口 |④---|
93
②口口② |①---|
③口口③ |----|
口口口① |②---|
口口①口 |③---|
94
口口②② |①---|
口口口口 |----|
①③口① |②---|
口口口口 |③---|
95
②②口口 |①---|
口口口口 |②---|
口口①口 |----|
③口口③ |③---|
96
口③①口 |①---|
③口口① |②---|
②口口④ |③---|
口②④口 |④---|
97
①口口① |①---|
口③③口 |----|
口②②口 |②---|
口口口口 |③---|
98
③①①② |①---|
口口口口 |----|
口口口口 |②---|
②口口③ |③---|
99
口口口口 |①---|
口①①口 |----|
口①①口 |----|
口口口口 |----|
100
口③①口 |①---|
口口④口 |②---|
②口口口 |③---|
口口口口 |④---|
101
口口口口 |①---|
口口口口 |----|
口口口① |----|
口口口口 |----|
102
口口口口 |----|
口口口口 |----|
口口口口 |----|
口口口口 |----|
103
口口口口 |----|
口口口口 |----|
口口口口 |----|
口口口口 |----|
104
口①③口 |①---|
口④口口 |②---|
口口口② |③---|
口口口口 |④---|
105
口口口口 |①---|
口③③口 |----|
①口口口 |②---|
口②②口 |③---|
106
口①口① |①---|
口口口口 |----②-|
③口③口 |----|
口口口② |③---|
107
①口①口 |----|
口口口口 |①---|
口口口口 |----|
口口口口 |----|
108
口口口口 |①---|
③口口① |②---|
口④口口 |③---|
口②口口 |④---|
109
口口口口 |①---|
口口口口 |----|
口口口口 |----|
口口①口 |----|
110
口口口口 |----|
口口口口 |----|
口口口口 |----|
口口口口 |----|
111
口口口口 |----|
口口口口 |----|
口口口口 |----|
口口口口 |----|
112
口口口口 |①---|
①口口③ |②---|
口口④口 |③---|
口口②口 |④---|
113
口口③口 |①---|
口口口口 |----|
口②口口 |②---|
口①口口 |③---|
114
①口口① |①---|
口③③口 |----②-|
口③③口 |----|
口②②口 |③---|
115
口③②① |----|
口口口口 |①---|
口口口口 |②---|
口口口口 |③---|
116
口口口口 |①---|
口②②口 |----|
①口口① |②---|
口口口口 |----|
117
口口口④ |①---|
①口口口 |②---|
口②③口 |③---|
口口口口 |④---|

accuracy: 100%
最終更新:2023年06月21日 12:40