アットウィキロゴ
シープドリーミン
テヅカ feat. 大西あみみ

EXTREME

Level: 9.0
BPM: 220
Notes: 751

1
口口口口 |----|
口口口口 |----|
口口口口 |----|
口口口口 |----|
2
口口②⑤ |①---②-|
⑥⑦⑧口 |③---|
③①①口 |④---⑤-|
口④④口 |⑥-⑦-⑧-|
3
口③④口 |①---②-|
口口口① |----③-|
③⑦口④ |④---|
②⑤⑥口 |⑤-⑥-⑦-|
4
③口口③ |①---|
②③②④ |②---|
口口①口 |③---|
②④口④ |④---|
5
口①口口 |①---|
口③③口 |②---|
①口口② |----|
④口②口 |③---④-|
6
口④⑥口 |①---②-|
①口口③ |③---④-|
口⑤⑦口 |⑤---⑥-|
口口口② |⑦---|
7
④⑥⑥口 |----|
③口口口 |①-②-③-|
②口口⑤ |④---⑤-|
①口口口 |⑥---|
8
③口口① |①---|
⑤①③⑤ |②---|
口③①口 |③---|
④口口② |④---⑤-|
9
③③口② |----①-|
口口口口 |②---|
口口①口 |③---|
口口④④ |④---|
10
③口③② |①---|
①③②③ |----②-|
口①口② |----|
①口口口 |③---|
11
口②口③ |----①-|
②口口口 |②---|
③口①口 |③---|
口⑤④④ |④---⑤-|
12
⑥口③⑥ |①---②-|
⑤①口口 |③---④-|
口口②口 |⑤---|
④口⑦口 |⑥---⑦-|
13
口③口口 |①---②-|
⑤口①⑤ |③---|
口②口口 |④---|
④口口口 |⑤---|
14
③口口② |----|
口①口口 |①---|
口口①口 |②---|
②口口③ |③---|
15
口①①⑤ |----|
②⑥口口 |①---②-|
口③口④ |③---④-|
口口口口 |⑤---⑥-|
16
⑤口③口 |①---|
口口口③ |②---|
口④口口 |③---|
②①①口 |④---⑤-|
17
口③口口 |----|
③①②口 |①---|
②口③口 |②---|
①②①口 |③---|
18
①口①② |①---②-|
口⑥⑥③ |③-④-⑤-|
口①口④ |⑥---|
口口口⑤ |----|
19
口口口口 |----|
口口口口 |----|
①②③口 |①-②-③-|
口口口口
20
⑦④④口 |①-②-③-|
口⑤⑥口 |④---⑤-|
口口口口 |⑥---⑦-|
①②③口
21
口口口口 |----①-|
口口口② |②---|
口口口口 |③---|
③口口①
22
③①口口 |①---|
口口口口 |②---|
口口口口 |③---|
口②口口
23
口口①① |①---②-|
口口口口 |③---|
口口口② |----|
口口③口
24
口口口口 |①---②-|
①①口③ |③---|
口口口口 |④---|
④④口②
25
口口口口 |①-②-③-|
口④③口 |④---|
口②①口 |⑤---|
口口口⑤
26
口口口口 |①---|
①③③口 |②---|
口口口口 |③---|
口②②口
27
①口口① |①---|
口口口口 |②---|
②口口② |----|
口口口口
28
口口②口 |----|
口口口口 |①---|
口口口口 |②---|
①口口口
29
口口口② |①---|
口口口口 |②---|
口口口口 |③---|
口口③①
30
①口口④ |①---|
口口口口 |②---③-|
口口口③ |④---|
②②口口
31
口口口口 |----①-|
①口口② |②---|
口①②口 |----|
口口口口
32
③口口口 |①---②-|
口口口口 |③---|
②口口口 |----|
口①口①
33
口口口③ |①---②-|
口④口口 |③---|
口口④② |④---|
①口①口
34
①口①口 |①---②-|
口口口口 |③---|
口口口口 |----|
口②③口
35
口①口口 |----|
①口口口 |----|
口口口口 |①---|
口口口口
36
口口⑤② |①---|
口③口口 |②---③-|
⑤口④① |④---⑤-|
②口①口
37
口口口口 |----①-|
口口口口 |②---|
口②口口 |③---|
口①③口
38
口口③① |①---|
口口口口 |②---|
口口口口 |③---|
口口口②
39
①①口口 |①---②-|
口口口口 |③---|
口口②口 |----|
口③口口
40
口口③口 |①---②-|
①口口④ |③---|
①②⑤④ |④---⑤-|
口口口口
41
口①口口 |①---|
口口④口 |②---③-|
②⑤口口 |④---⑤-|
②③口口
42
口口①口 |①---|
口②口口 |②---|
③口②口 |③---|
口口口③
43
①口口① |①---②-|
口口口口 |③---|
口②口口 |----|
口口③口
44
口①②口 |----|
口口口口 |①---|
①口口② |②---|
口口口口
45
②口口口 |①---|
口口①③ |②---|
口②口口 |③---|
口口③①
46
口②③① |①---|
②口口口 |②---|
口口①③ |③---|
口口口口
47
口口口口 |①---|
口口口② |②---|
①③口口 |----③-|
口①②口
48
②口口口 |①---|
口口①口 |②---|
口口③口 |----③-|
口口口②
49
口口口② |①---|
口①口口 |②---|
口口口③ |③---|
②口③口
50
口②口口 |①---|
②口①口 |②---|
口①口口 |----|
口口口口
51
口口①① |----|
口口口口 |----|
口口口口 |①---|
②②口口 |②---|
52
②②⑤口 |①---|
口①①④ |②---|
口①①口 |③---|
口口③③ |④---⑤-|
53
口口口口 |----|
①口口③ |①---|
①口口③ |②---|
②②口口 |③---|
54
①①口③ |①---|
口口④口 |②---|
⑤口口口 |③---④-|
口⑤②② |----⑤-|
55
③口口③ |----①-|
②口口口 |②---|
口④④口 |③---|
①口口口 |④---|
56
口口③口 |----|
口口口③ |①---|
②口口① |②---|
口②①口 |③---|
57
②①口③ |①---|
①口口口 |----|
口②③口 |②---|
口口口口 |③---|
58
口①①口 |①---|
口口口口 |----②-|
②口口② |----|
口③③口 |③---|
59
①①①① |①---|
口口口口 |----②-|
②②②② |----|
口口口口
60
口口口口 |----|
口③④口 |①---②-|
口口口口 |③---④-|
口①②口
61
口②口口 |----|
口口口口 |①---|
口①口口 |②---|
口口口口
62
口口③口 |①---|
口①④口 |②---|
口口②口 |③---|
口口口口 |④---|
63
③口口③ |①---|
②口口② |----②-|
①口口① |----|
口口口口 |③---|
64
口口③口 |①---②-|
口⑤⑤口 |③---|
口②⑥口 |④---|
④①①④ |⑤---⑥-|
65
口①④口 |①---|
⑤口口⑤ |②---③-|
⑤③口⑤ |④---|
口②②口 |⑤---|
66
③②口③ |①---|
口口④口 |②---|
口口口口 |③---④-|
①⑤口口 |⑤---|
67
口口口口 |①---|
①③口① |----|
口口口口 |②---|
①口②① |③---|
68
⑤②①⑥ |①---|
②口⑥④ |②---③-|
①⑥①口 |④---⑤-|
⑥口口③ |----⑥-|
69
口口④口 |----①-|
④①口口 |②---|
口口口③ |③---|
口③②口 |④---|
70
①①口③ |①---|
口⑤口③ |②---|
④口⑤口 |③---|
④口②② |④---⑤-|
71
口口③② |----|
口口③② |①---|
口口口口 |②---|
口①①口 |③---|
72
口①口口 |①---|
③①口口 |②---③-|
口⑤④口 |----④-|
②口⑥口 |⑤---⑥-|
73
口口口口 |①---|
③③口口 |②---|
口口口④ |----|
②①口② |③---④-|
74
③口口① |①---|
口口口④ |②---③-|
口②口口 |----④-|
口口口⑤ |⑤---|
75
口口口口 |①---|
口口口口 |②---|
①②③口 |③---|
①②③口 |----|
76
⑥①②⑤ |①---|
④⑥①② |②---③-|
口口⑥① |④---⑤-|
③口口⑥ |----⑥-|
77
口④④④ |----①-|
口口①口 |②---|
口口口口 |③---|
③②③口 |④---|
78
③口口口 |①---|
②口②④ |②---|
④①口① |③---④-|
口⑤口③ |----⑤-|
79
口口口口 |①---②-|
口④⑤口 |③---④-|
⑥③②⑥ |⑤---|
口口①口 |⑥---|
80
④①①④ |①---|
①口③① |----|
④③口④ |②---③-|
口②②口 |----④-|
81
口①①口 |----|
③口口口 |①---|
口口口口 |②---|
②③口② |----③-|
82
③③口口 |①---|
口④④① |----②-|
②口口口 |③---|
口口①口 |④---|
83
口口②② |①---|
口口口口 |②---|
口口①① |③---|
③③口口 |----|
84
①①口口 |①---|
②②④口 |②---|
口③④口 |③---|
口③口口 |④---|
85
②②口口 |①---|
②口③① |----|
口③口① |②---|
口口口① |③---|
86
口口②② |①---|
口③口② |----|
口口③① |②---|
口口①① |③---|
87
②②口口 |①---|
②口①口 |②---|
口①口口 |----|
③口口③ |③---|
88
口口①① |①---|
口④②② |②---|
口④③口 |③---|
口口③口 |④---|
89
口口②② |①---|
①③口② |----|
①口③口 |②---|
①口口口 |③---|
90
口⑤③口 |①---|
④口口② |----|
①口口口 |②---③-|
①①口口 |④---⑤-|
91
口口口口 |①---|
口①①口 |----|
口①①口 |----|
口口口口 |----|
92
①①口口 |①---|
②②④口 |②---|
口③④口 |③---|
口③口口 |④---|
93
②②口口 |①---|
②口③① |----|
口③口① |②---|
口口口① |③---|
94
口口②② |①---|
口③口② |----|
口口③① |②---|
口口①① |③---|
95
②②口口 |①---|
②口①口 |②---|
口①口口 |----|
③口口③ |③---|
96
口③①口 |①---|
③①③① |②---|
④③①② |③---|
口②④口 |④---|
97
①口口① |①---|
口③③口 |----|
口口口口 |②---|
②口口② |③---|
98
④①①④ |①---|
口口口③ |----②-|
①④④① |③---|
口②口口 |④---|
99
口口口口 |①---|
口①①口 |----|
口口口口 |----|
①口口① |----|
100
②②口口 |①---|
①①④③ |②---|
口口④③ |③---|
口口口③ |④---|
101
口口口口 |①---|
口①口口 |----|
口①口口 |②---|
口①②口 |----|
102
②口口④ |①---|
口口口口 |②---|
口口口口 |③---|
①口口③ |④---|
103
口①口口 |①---|
口②口口 |②---|
口③口口 |③---|
口口口口 |----|
104
口口②② |①---|
③④①① |②---|
③④口口 |③---|
③口口口 |④---|
105
口口③③ |①---|
口口①③ |----|
②口①口 |②---|
②②①口 |③---|
106
口①口口 |①---|
①②①口 |----②-|
口口③口 |----|
口③②③ |③---|
107
口口口口 |----|
口口①口 |①---|
口①口① |----|
口口口口 |----|
108
②②口口 |①---|
①①④③ |②---|
口口④③ |③---|
口口口③ |④---|
109
口口口口 |①---|
口①口口 |----|
口①口口 |②---|
口①②口 |----|
110
口②④口 |①---|
口口口口 |②---|
口口口口 |③---|
①口口③ |④---|
111
①口口口 |①---|
口②口口 |②---|
口口③口 |③---|
口口口④ |④---|
112
口口②② |①---|
③④①① |②---|
③④口口 |③---|
③口口口 |④---|
113
③口③口 |①---|
口口①口 |----|
口口①口 |②---|
口②①② |③---|
114
口口口口 |①---|
①①③③ |----②-|
③③①① |----|
②口②口 |③---|
115
口③②① |----|
口口口口 |①---|
口口口口 |②---|
口口口口 |③---|
116
口口口口 |①---|
①②③① |----②-|
口④⑤口 |③---④-|
⑥①①⑥ |⑤---⑥-|
117
④②②④ |----①-|
④口口④ |②---|
①口口① |③---|
口③③口 |④---|

accuracy: 100%
最終更新:2023年06月21日 13:41