アットウィキロゴ
€omet popcorn
pan

BASIC

Level: 5
BPM: 244
Notes: 298

BPM: 122
1
口口口口 |----|
口口口口 |----|
口口口口 |----|
口口口口 |----|
2
口口口口 |①---|
口①①口 |----|
口口口口 |②---|
口②②口 |----|
3
口口口口 |①---|
①口口② |----|
口①②口 |②---|
口口口口 |----|
4
①②口口 |①---|
口口③④ |②---|
口口口口 |③---|
口口口口 |④---|
5
口口口口 |①---|
口口口口 |----|
口口口口 |----|
口①①口 |----|
6
口口口口 |①---|
口④①口 |②---|
口③②口 |③---|
口口口口 |④---|
7
口口口口 |①---|
④口口① |②---|
③口口② |③---|
口口口口 |④---|
8
④③②① |①-②-|
口⑤⑤口 |③-④-|
口⑥⑥口 |⑤---|
口口口口 |⑥---|
9
⑥口口口 |①---|
④口口⑤ |②-③-|
②口口③ |④-⑤-|
口①①口 |⑥---|
10
口口口口 |----|
口口口口 |----|
口口口口 |----|
口口口口 |----|
11
④口口② |①---|
口口口口 |②---|
①口口③ |③---|
口口口口 |④---|
12
④⑤⑥口 |①-②-|
口③②① |③---|
口口口口 |④-⑤-|
口口口口 |⑥---|
13
口口口口 |①---|
③④⑤⑥ |②---|
口②②口 |③-④-|
口①①口 |⑤-⑥-|
14
口①①口 |①---|
口口口口 |----|
口口口口 |----|
口口口口 |----|
15
口口口口 |①--②|
口口③口 |--③-|
口②口口 |----|
①口口口 |----|
16
口口口口 |①--②|
口③口口 |--③-|
口口②口 |----|
口口口① |----|
17
口口口① |①--②|
口口②口 |--③-|
口③口口 |----|
口口口口 |----|
18
①口口口 |①--②|
口②④口 |--③-|
口⑤③口 |--④-|
口口口口 |-⑤--|
19
口口口④ |①---|
口③口口 |②---|
口口②口 |③---|
①口口口 |④---|
20
④口口口 |①---|
口口③口 |②---|
口②口口 |③---|
口口口① |④---|
21
口⑤⑤口 |--①-|
口口口口 |②-③-|
④③②① |④---|
口口口口 |⑤---|
22
口⑤⑤口 |--①-|
口口口口 |②-③-|
①②③④ |④---|
口口口口 |⑤---|
23
口④④口 |--①-|
口⑤⑤口 |②-③-|
口③②① |④---|
口口口口 |⑤---|
24
⑤口口⑤ |①---|
口④口口 |②-③-|
口①①③ |④---|
②口口口 |⑤---|
25
口②①口 |--①-|
口④③口 |②-③-|
口⑥⑤口 |④-⑤-|
口口⑦口 |⑥-⑦-|
26
⑦口口口 |--①-|
⑤口口⑥ |②-③-|
③口口④ |④-⑤-|
①口口② |⑥-⑦-|
27
口②①口 |--①-|
④口③④ |②-③-|
⑤口口⑤ |④---|
口口口口 |⑤---|
28
口口口口 |①---|
②③④口 |②-③-|
口口口口 |④---|
①⑤⑤① |⑤---|
29
①口口口 |①---|
⑤口②口 |②---|
④③口口 |③---|
口口口口 |④-⑤-|
30
口口口① |①---|
口②口⑤ |②---|
口口③④ |③---|
口口口口 |④-⑤-|
31
⑤③口口 |①---|
④口口口 |②---|
口口②口 |③---|
①口口口 |④-⑤-|
32
口口①口 |①---|
口口口口 |②---|
口②口口 |③-④-|
⑥⑤④③ |⑤-⑥-|
33
口口②② |①---|
③④⑤口 |②---|
口口①① |③-④-|
口口口口 |⑤---|
34
②②口口 |①---|
口⑤④③ |②---|
①①口口 |③-④-|
口口口口 |⑤---|
35
②口口② |①---|
口口口口 |--②-|
口③③口 |----|
①口口① |③---|
36
④口口④ |①---|
③口口③ |②---|
②口口② |③---|
①口口① |④---|
37
口①①口 |①---|
口①①口 |----|
口口口口 |----|
口口口口 |----|
38
口口口口 |①---|
口口口口 |----|
口口②口 |②---|
口①口口 |----|
39
口口口口 |①---|
口①口口 |----|
口口口口 |②---|
口口②口 |----|
40
口口口口 |①---|
口口②口 |----|
口①口口 |②---|
口口口口 |----|
41
口③③口 |①---|
①②口口 |②---|
口口口口 |③---|
口口口口 |----|
42
口口口口 |①---|
口③③口 |②---|
口口②① |③---|
口口口口 |----|
43
口口口口 |①---|
口口口口 |②---|
口口口口 |③---|
①②③④ |④---|
44
口①①口 |①---|
口①①口 |----|
口口口口 |----|
口口口口 |----|
45
口口口口 |--①-|
口口口口 |②-③-|
⑦⑥⑤④ |④-⑤-|
口①②③ |⑥-⑦-|
46
④⑤⑥⑦ |--①-|
③②①口 |②-③-|
口口口口 |④-⑤-|
口口口口 |⑥-⑦-|
47
口口口口 |--①-|
口⑤⑤口 |②-③-|
口④④口 |④---|
口①②③ |⑤---|
48
口①①口 |①---|
口④③② |②-③-|
口口口口 |④---|
口⑤⑤口 |⑤---|
49
口⑤⑤口 |①-②-|
口口口口 |③-④-|
①②③④ |⑤---|
⑥口口⑥ |⑥---|
50
口⑤⑤口 |①-②-|
④③②① |③-④-|
口口口口 |⑤---|
口⑥⑥口 |⑥---|
51
⑥口口⑥ |①-②-|
口⑤⑤口 |③-④-|
①②③④ |⑤---|
口口口口 |⑥---|
52
口口口口 |①-②-|
口⑤⑤口 |③-④-|
④③②① |⑤---|
⑥口口⑥ |⑥---|
53
口口口口 |①-②-|
口⑥⑥口 |③-④-|
①②③④ |⑤---|
⑤口口⑤ |⑥---|
54
⑤口口⑤ |①-②-|
口口口口 |③-④-|
④③②① |⑤---|
口⑥⑥口 |⑥---|
55
口①①口 |①---|
口②②口 |--②-|
口③③口 |----|
口口口口 |③---|
56
口口口④ |①---|
③口口口 |②---|
口口口② |③---|
①口口口 |④---|
57
口口口口 |①---|
口①①口 |----|
口①①口 |----|
口口口口 |----|
58
口口口口 |----|
口口口口 |----|
口口口口 |----|
口口口口 |----|

accuracy: 100%
最終更新:2023年03月16日 05:58