アットウィキロゴ
€omet popcorn
pan

ADVANCED

Level: 8
BPM: 244
Notes: 586

BPM: 122
1
口口口口 |----|
口口口口 |----|
口口口口 |----|
口口口口 |----|
2
口④④口 |--①-|
③口⑤口 |②-③-|
口⑥口② |④--⑤|
①口口口 |⑥---|
3
口④④口 |--①-|
口⑤口③ |②-③-|
②口⑥口 |④--⑤|
口口口① |⑥---|
4
④口口④ |--①-|
⑤口③⑤ |②-③-|
⑥②口⑥ |④--⑤|
口口①口 |--⑥-|
5
口口口口 |①---|
口口口口 |----|
口口口口 |----|
①口口① |----|
6
口④④口 |--①-|
③口⑤口 |②-③-|
口⑥口② |④--⑤|
①口口口 |⑥---|
7
④⑥口⑤ |--①-|
③口⑦⑤ |②--③--④-|
②⑧口口 |⑤--⑥|
口口⑨① |⑦⑧⑨-|
8
⑤⑥口⑤ |①-②-|
⑧③④⑧ |③-④-|
口口⑦口 |⑤-⑥⑦|
①⑨⑨② |-⑧-⑨|
9
②③④⑤ |--①-|
⑧⑦⑥口 |②③④⑤|
①⑨⑨① |⑥⑦⑧-|
⑩口口⑪ |⑨-⑩⑪|
10
口口口口 |----|
口口口口 |----|
口口口口 |----|
口口口口 |----|
11
口③⑥④ |①--②|
⑨①①⑩ |③--④|
②①①⑤ |⑤--⑥|
口⑦⑧口 |⑦⑧⑨⑩|
12
①口⑥② |①-②③|
口①⑤口 |-④⑤⑥|
口口④口
③口口口

⑩⑩口口
⑦口口⑧
⑦口口⑧ |-⑦⑧-|
⑨⑨口口 |⑨-⑩-|
13
口⑨⑦① |①-②-|
③④⑤⑥ |③④⑤⑥|
⑧②⑩口 |--⑦-|
口口口口 |⑧-⑨⑩|
14
口口口① |--①-|
口口口口 |②③-④|
口②口口
④口③口

口⑩⑨⑧
⑤⑥⑦口
口口口口 |-⑤⑥⑦|
口口口口 |-⑧⑨⑩|
15
④⑤⑥⑦ |①--②|
口口③③ |--③-|
口口②② |----|
口口①① |④⑤⑥⑦|
16
⑦⑥⑤④ |①--②|
③③口口 |--③-|
②②口口 |----|
①①口口 |④⑤⑥⑦|
17
口口口口 |①--②|
口口①① |--③-|
口口②②
口口③③

⑤⑥⑦⑧
口④④口
口口口口 |--④-|
口口口口 |⑤⑥⑦⑧|
18
口口口口 |①--②|
①⑤⑤① |--③-|
②④④② |--④-|
③口口③ |-⑤--|
19
口①①② |①-②-|
⑤口口⑥ |③④⑤⑥|
口口口口
口③④口

⑧⑨⑩⑪
口口口口
口⑦⑦口 |-⑦-⑧|
口口口口 |⑨⑩⑪-|
20
口口口口 |①-②-|
口②②口 |③④⑤⑥|
③④⑤⑥
①口口①

口⑦⑦口
⑫⑪⑩⑨
口口口口 |-⑦-⑧|
口⑧⑧口 |⑨⑩⑪⑫|
21
口口口③ |--①-|
口口口口 |②-③-|
②口③①
口②口①

口④④口
⑤口口⑥
口口口口 |④--⑤|
⑤口口⑥ |⑥---|
22
③口口口 |--①-|
口口②口 |②-③-|
①③②口
口①口口

口④④口
④口口④
⑤口口⑤ |④---|
⑤口口⑤ |⑤---|
23
口③口口 |--①-|
口口口② |②-③-|
③①②口
口①口口

④口口④
⑤④④口
口⑧⑦⑥ |④-⑤⑥|
口口口口 |-⑦-⑧|
24
⑤⑧⑦⑥ |--①-|
③口④④ |②-③-|
口⑤口口 |④--⑤|
口①②口 |-⑥⑦⑧|
25
口口口③ |--①-|
口②口口 |②-③-|
口口①③
②口口①

④口⑦口
口口口⑤
⑥④⑦口 |④-⑤-|
口⑥⑤口 |⑥-⑦-|
26
③口口口 |--①-|
口口②口 |②-③-|
③①口口
①口口②

口⑤④口
⑤口口⑥
口⑦口④ |④-⑤-|
⑦口⑥口 |⑥-⑦-|
27
口口口③ |--①-|
②口口口 |②-③-|
口口①③
口②口①

口④④口
口④④⑤
⑥⑦⑧口 |④-⑤⑥|
口口口口 |-⑦-⑧|
28
口口口口 |-①②③|
③口口④ |④-⑤-|
口口口口
①⑤⑤②

口⑥⑦⑨
口⑥⑦口
口口口口 |⑥⑦--|
⑧口口口 |⑧-⑨-|
29
①⑤口口 |①-②-|
⑦②口口 |③-④-|
口口口③ |⑤---|
口口④⑥ |⑥-⑦-|
30
口口口① |①-②-|
口口②口 |③-④-|
④口口口
口③口口

口口口⑦
口口口口
口口口⑤ |⑤---|
⑥口口口 |⑥-⑦-|
31
②口③口 |①-②-|
口①口④ |③-④-|
口口口口
口口口口

⑦口口口
口口口口
口口口口 |⑤---|
口⑤口⑥ |⑥-⑦-|
32
口口①⑦ |①-②-|
口口⑤② |③-④-|
④口口口 |⑤---|
⑥③口口 |⑥-⑦-|
33
口②口⑨ |①-②-|
口口③口 |③-④-|
①口⑦⑥ |⑤-⑥⑦|
⑧⑤口④ |⑧-⑨-|
34
①口口口 |①-②-|
口口口④ |③-④-|
口②口口
口口③口

口口口口
口⑦⑥口
⑧⑨⑩⑪ |⑤-⑥⑦|
口⑤口口 |⑧⑨⑩⑪|
35
③①①③ |①--②|
⑦⑥⑤④ |--③-|
⑧⑧口口 |-④⑤⑥|
②口口口 |⑦-⑧-|
36
口②口③ |①-②-|
口口口口 |③-④-|
口口④口
①口①口

⑥口口口
⑧⑨⑩口
口口口口 |⑤-⑥⑦|
口⑤⑦⑤ |-⑧⑨⑩|
37
口口口口 |①---|
④口口① |②③④-|
口口③口
②口口口

口⑤⑤口
口⑥口口
口口⑦口 |⑤--⑥|
口口口口 |--⑦-|
38
口口口④ |①-②-|
②口口口 |③-④-|
口③口口
口①①口

口⑥⑦口
口⑧⑨口
口⑩⑤口 |⑤-⑥⑦|
口口口口 |⑧⑨⑩-|
39
口④④口 |----|
口③⑤口 |①②③-|
口⑥口② |④--⑤|
口①口口 |--⑥-|
40
④口口② |①-②-|
口口③口 |③-④-|
口口口口
口①①口

口口口口
口⑤⑩口
口⑨⑧口 |⑤-⑥⑦|
口⑦⑥口 |⑧⑨⑩-|
41
①⑤⑤口 |①-②-|
①⑦⑥④ |③-④-|
③⑦⑥口 |⑤--⑥|
口口口② |⑦---|
42
口⑤⑤① |①-②-|
④⑥⑦① |③-④-|
口⑥⑦③ |⑤--⑥|
②口口口 |⑦---|
43
②口②口 |①-②-|
口③口③ |③-④-|
④口④口
口口口①

⑧⑤⑧⑤
口口⑥口
口口口口 |⑤-⑥⑦|
口⑦口口 |--⑧-|
44
口口口口 |①---|
口口口口 |----|
口口口口 |----|
①口①口 |----|
45
③口口口 |--①-|
口口②口 |②-③-|
③①口口
①口口②

口⑦口④
⑤口口口
口⑦④⑥ |④-⑤-|
口⑤⑥口 |⑥-⑦-|
46
口口口③ |--①-|
口②口口 |②-③-|
口口①③
②口口①

口④⑤口
⑥口口⑤
④口⑦口 |④-⑤-|
口⑥口⑦ |⑥-⑦-|
47
③口口口 |--①-|
口口口② |②-③-|
③①口口
①口②口

口④④口
⑤④④口
口⑧⑦⑥ |④-⑤⑥|
口口口口 |-⑦-⑧|
48
口口口口 |-①②③|
④口口③ |④-⑤-|
口口口口
②⑤⑤①

口⑦⑥⑨
口⑦⑥口
口口口口 |⑥⑦--|
⑧口口口 |⑧-⑨-|
49
①⑤⑤口 |①-②-|
口口口③ |③-④-|
⑦②口口 |⑤---|
口口④⑥ |⑥-⑦-|
50
口口口① |①-②-|
④口口口 |③-④-|
口口②口
口③口口

口口口⑦
口口口⑤
口口口⑤ |⑤---|
⑥口口口 |⑥-⑦-|
51
②口③口 |①-②-|
口口口口 |③-④-|
口①口④
口口口口

⑦口口口
口口口口
口口口口 |⑤---|
⑤⑤口⑥ |⑥-⑦-|
52
口口①⑦ |①-②-|
④口口口 |③-④-|
口⑤⑤② |⑤---|
⑥③口口 |⑥-⑦-|
53
口②口⑨ |①-②-|
口口③口 |③-④-|
①⑤⑦⑥ |⑤-⑥⑦|
⑧⑤口④ |⑧-⑨-|
54
①口口口 |①-②-|
口口口④ |③-④-|
口②口口
口口③口

口口口口
口⑦⑥口
⑧⑨⑩⑪ |⑤-⑥⑦|
⑤⑤口口 |⑧⑨⑩⑪|
55
③①①③ |①--②|
⑦⑥⑤④ |--③-|
⑧⑧口口 |-④⑤⑥|
②口口口 |⑦-⑧-|
56
口②口③ |①-②-|
口口口口 |③-④-|
口口④口
①口①口

⑥口口口
⑧⑨⑩口
口口口口 |⑤-⑥⑦|
口⑤⑦⑤ |-⑧⑨⑩|
57
口⑤⑤口 |①-②-|
④口⑥① |③-④-|
口⑦口③ |⑤--⑥|
②口口口 |⑦---|
58
口口口口 |--①-|
口口口③ |②-③-|
②口口口
口口口①

⑨④④口
⑨⑤⑥口
⑨⑦⑧口 |④--⑤|
口口口口 |⑥⑦⑧⑨|

accuracy: 100%
最終更新:2023年03月16日 05:57