アットウィキロゴ
€omet popcorn
pan

EXTREME

Level: 10.2
BPM: 244
Notes: 909

BPM: 122
1
口口口口 |----|
口口口口 |----|
口口口口 |----|
口口口口 |----|
2
④⑤⑤口 |①-②-|
①口③① |③-④-|
口口口口 |⑤--⑥|
⑥②口⑦ |⑦---|
3
口⑤⑤④ |①-②-|
①③口① |③-④-|
口口口口 |⑤--⑥|
⑦口②⑥ |⑦---|
4
④口口口 |①-②-|
①口③① |③-④-|
口口口口
口②口口

口⑥⑤⑤
口口口⑦
口口口口 |⑤--⑥|
⑦口⑥口 |--⑦-|
5
⑥口口⑦ |①-②③|
①①③口 |④⑤⑥⑦|
口④⑤口
口②口口

口⑧⑪口
口口口⑪
⑫口口⑨ |⑧⑨⑩-|
⑩⑫口口 |⑪--⑫|
6
口④④③ |--①-|
②②口⑥ |②-③-|
⑥口口② |④--⑤|
⑤口①⑥ |⑥---|
7
口口口⑤ |①-②-|
③口④口 |③--④--⑤-|
口①口③
口②②口

⑥⑦⑥口
口口口⑧
⑧口⑨口 |⑥--⑦|
口口⑩口 |⑧⑨⑩-|
8
⑤⑤口口 |①-②③|
④口③口 |④-⑤-|
口③口②
①①口①

口⑩⑦口
⑩⑥⑨⑧
⑧⑨⑥⑩ |⑥-⑦⑧|
口⑦⑩口 |-⑨-⑩|
9
⑤口口口 |--①-|
口④口口 |②③④⑤|
③口口口
①②口①

口⑨⑥⑨
口口⑦⑥
⑩⑧口⑪ |⑥⑦⑧-|
⑩口口⑪ |⑨-⑩⑪|
10
②⑤口④ |①-②③|
①口⑤③ |-④⑤-|
口口口口
口①③口

口口⑧口
⑬⑭⑮⑯
⑨⑩⑪⑫ |⑥⑦-⑧|
⑥⑦口⑦ |⑨⑩⑪⑫⑬⑭⑮⑯|
11
④①⑤④ |①-②③|
口⑥口口 |④---⑤-⑥⑦|
口⑦口口
③口②③

口口⑭口
⑬口口⑩
⑨口⑫⑩ |⑧-⑨⑩|
⑪⑧口口 |⑪⑫⑬⑭|
12
①口口口 |①-②③|
⑥④②⑥ |-④⑤⑥|
口①口口
⑤口口③

⑩口口⑩
口口口口
⑦⑨⑨⑧ |-⑦⑧-|
口⑦⑧口 |⑨-⑩-|
13
口口①⑥ |①-②-|
口口⑤① |③④⑤⑥|
②④口口
③②口口

⑧⑦⑨口
⑦⑨口口
口口⑩⑦ |--⑦-|
口⑩⑦⑧ |⑧-⑨⑩|
14
口③口② |①-②-|
③口②⑤ |③④-⑤|
①口口④
①口④⑤

⑥口⑪口
口⑩口口
⑦⑧⑨口 |--⑥---⑦⑧|
口⑫口口 |⑨⑩⑪⑫|
15
口③口③ |①--②|
①口口② |--③④|
口口口口
①口④②

⑤口⑨口
⑥⑫⑪口
⑦口⑬口 |⑤-⑥-⑦-⑧--⑨--|
⑧⑩口口 |⑩⑪⑫⑬|
16
②③口口 |①--②|
口④口① |---③④⑤|
②⑤口口
口口口①

⑩口口口
⑧口口⑪
⑫口⑨⑦ |⑥⑦⑧⑨|
口⑥口⑬ |⑩⑪⑫⑬|
17
③②③② |①--②|
口口口口 |--③-|
口③口③
①口①口

口⑪⑫口
④⑤⑥⑦
口口⑧口 |④-⑤-⑥-⑦--⑧--|
⑨口口⑩ |⑨⑩⑪⑫|
18
①口口① |①--②|
③⑤④③ |--③-|
口③③口 |--④-|
④②②⑤ |-⑤--|
19
⑥①①⑥ |①-②-|
口口⑤② |③④⑤⑥|
①④口①
③口口口

口口口口
口⑩口口
⑪口⑨⑪ |-⑦-⑧|
口⑦⑦⑧ |⑨⑩⑪-|
20
⑥②②⑥ |①-②-|
①口⑤① |③④⑤⑥|
口④口口
③口口口

口口⑧口
⑦⑨口口
⑧口⑩口 |-⑦-⑧|
口⑪口⑦ |-⑨⑩⑪|
21
③口口② |--①-|
①口口② |②-③-|
②③口口
①口③①

口④④口
口④④口
口口⑥⑥ |④--⑤|
⑤⑤口口 |⑥---|
22
②口④③ |①-②-|
③口口② |③-④-|
①③口④
④口口②

口⑤口口
口⑧⑦⑥
口口⑤口 |⑤-----⑥⑦|
口口⑤口 |⑧---|
23
口②口③ |①-②-|
③④口④ |③-④-|
②口③①
④口②口

⑥⑧⑥⑧
口口⑤口
口⑦口⑦ |⑤-⑥⑦|
⑨⑤⑨⑤ |-⑧-⑨|
24
口口③口 |-①②③|
⑧⑦⑥⑤ |④--⑤⑥⑦⑧--⑨--|
②口口⑨
口④口①

⑫⑬口⑫
⑮口⑭口
⑬⑪⑪口 |⑩⑪-⑫|
⑩⑮⑩⑭ |-⑬⑭⑮|
25
④⑧①⑦ |---①②③|
口②口⑤ |④⑤⑥⑦⑧⑨|
口口⑨口
⑥口③口

⑳口⑲口
⑩⑱⑬21
⑭⑯口⑪ |⑩⑪⑫⑬⑭⑮|
口⑫⑰⑮ |⑯⑰⑱⑲⑳21|
26
口③口④ |①--②③④|
⑦口⑩口 |⑤⑥⑦⑧⑨⑩|
⑨口②⑥
①⑤口⑧

⑬⑲⑯⑱
口⑮口⑫
口⑪口⑳ |⑪⑫⑬⑭⑮⑯|
⑰21⑭22 |⑰⑱⑲⑳2122|
27
⑧⑨⑩口 |①--②③④|
①⑦⑥⑤ |⑤⑥⑦⑧⑨⑩|
②③④口
口口口口

口口口⑫
⑫⑮⑮⑭
⑭⑮⑮⑬ |⑪-⑫⑬|
⑪⑬⑪口 |-⑭-⑮|
28
⑤⑥⑦⑧ |-①②③|
③口口口 |④--⑤⑥⑦⑧--⑨--|
⑨口口④
①口②口

口口口口
⑬⑪⑬⑩
口口口口 |⑩⑪--|
⑫⑪⑫⑩ |⑫-⑬-|
29
③口①① |①-②③|
口②口口 |④-⑤-|
口②口④
⑤⑤口④

⑨口⑦⑨
⑥口口⑥
口⑧⑧口 |⑥⑦--|
口口口口 |⑧-⑨-|
30
口①③口 |①-②③|
④①⑤⑤ |④-⑤-|
④口口②
口口口②

⑨⑦口⑨
口口口口
口⑧⑧口 |⑥⑦--|
口⑥⑥口 |⑧-⑨-|
31
口④⑤口 |①-②③|
③口②④ |④-⑤-|
②⑤口①
①口口口

⑨口口⑨
口口口口
口口口⑦ |⑥⑦--|
⑧⑥⑥⑧ |⑧-⑨-|
32
口口①口 |①-②③|
口②⑤① |④-⑤-|
③⑤②④
口口④口

口口⑨口
⑦⑨口⑦
口口⑧口 |⑥⑦--|
⑥⑧口⑥ |⑧-⑨-|
33
①⑤⑧口 |①②③④|
⑤口④⑥ |⑤⑥⑦⑧|
①③口⑧
⑦口②口

⑬口口⑬
口⑩口口
口⑫⑫口 |⑨-⑩⑪|
口⑨⑪口 |⑫-⑬-|
34
⑧口⑤口 |①②③④|
口⑧③① |⑤⑥⑦⑧|
②口⑦⑤
⑥④口①

口⑩口⑩
⑬口口⑭
⑪⑨口⑫ |-⑨⑩-|
口口⑨口 |⑪⑫⑬⑭|
35
①③①③ |①--②|
口口口口 |--③-|
口口口口
口②口②

口口④口
⑤⑨⑧⑦
⑩⑪⑫口 |-④⑤⑥|
口口⑥口 |⑦⑧⑨⑩⑪⑫|
36
①①③③ |①-②-|
口口口口 |③--④⑤⑥|
口口口②
口⑥⑤④

⑧⑧口⑩
口口⑬⑩
⑪⑨⑫口 |⑦-⑧⑨|
⑦口口口 |--⑩-⑪-⑫⑬|
37
⑤口①口 |①---|
④口⑥口 |②③④-|
口⑦口③ |⑤--⑥|
②口口口 |--⑦-|
38
口⑥⑦口 |①-②-|
④⑧⑨② |③-④-|
口⑩口口 |⑤-⑥⑦|
口③⑤① |⑧⑨⑩-|
39
⑤口④口 |①---|
口口⑥① |②③④-|
③⑦口① |⑤--⑥|
口口②口 |--⑦-|
40
口口⑩口 |①-②-|
②⑨⑧④ |③-④-|
口⑦⑥口 |⑤-⑥⑦|
⑤口③① |⑧⑨⑩-|
41
③③⑦口 |①-②-|
⑦口口④ |③-④-|
①⑥⑤口 |⑤--⑥|
⑤①口② |⑦---|
42
④口口口 |①-②-|
口口口① |③-④-|
口口③①
口②口③

口口口⑤
口⑤口口
⑥口口⑦ |⑤--⑥|
口口⑦口 |⑦---|
43
③③口口 |①-②③|
⑤口口⑤ |④-⑤⑥|
口⑥④口
①①口②

⑩口⑧⑧
口⑩⑦口
口口口口 |⑦-⑧⑨|
⑨⑨⑦口 |--⑩-|
44
口⑤口口 |①-②-|
口口④① |③④-⑤|
②口①口
口口口③

⑧口⑨⑦
口口口口
⑩口口口 |-⑥-⑦|
口口⑥口 |-⑧⑨⑩|
45
口口口口 |---①②③|
口⑥⑤④ |④⑤⑥⑦⑧⑨|
口①②③
⑦⑧⑨口

⑮⑫⑪⑩
⑭⑲⑱口
⑬⑰⑯口 |⑩⑪⑫⑬⑭⑮|
口口口口 |⑯⑰⑱⑲--|
46
口②③④ |①--②③④|
口口⑩口 |⑤⑥⑦⑧⑨⑩|
⑨⑦⑥⑤
①口⑧①

⑪⑲⑯⑱
⑰⑮口⑭
口口⑳口 |⑪⑫⑬⑭⑮⑯|
口⑬口⑫ |⑰⑱⑲⑳--|
47
④口⑤口 |①--②③④|
⑧⑥③⑨ |⑤⑥⑦⑧⑨⑩|
②口口⑦
①⑩①口

⑭⑬口⑬
口口⑮口
⑭⑪⑪口 |⑪-⑫⑬|
⑫口⑫⑮ |-⑭-⑮|
48
⑧⑦⑥⑤ |-①②③|
口③口口 |④--⑤⑥⑦⑧--⑨--|
口口②④
口①⑨口

口口口⑬
⑩口⑬⑩
⑫口口口 |⑩⑪--|
⑪⑫口⑪ |⑫-⑬-|
49
①口③口 |①-②③|
④①口口 |④-⑤-|
⑤②口③
口口⑤口

⑨⑦口口
口⑪⑩⑦
口⑨⑧口 |⑥⑦-⑧|
⑪⑥口口 |⑨⑩⑪-|
50
口⑤①口 |①-②③|
②口口⑤ |④-⑤-|
④口口①
口③口③

⑦口⑪⑦
⑨⑩⑧口
口⑥⑪口 |⑥⑦-⑧|
⑨⑩口口 |⑨⑩⑪-|
51
③③口⑤ |①-②③|
口⑤④口 |④-⑤-|
①口口②
口口①口

口⑪⑦口
⑦口⑩⑨
口⑪口口 |⑥⑦-⑧|
⑥⑧⑩⑨ |⑨⑩⑪-|
52
③口口③ |①-②③|
口①口⑤ |④-⑤-|
②口①④
口口口⑤

⑨⑩⑧口
⑥⑦⑪口
⑨⑩⑧口 |⑥⑦⑧-|
⑥⑦⑪口 |⑨⑩⑪-|
53
⑧⑧⑤③ |①②③④|
②⑤口① |⑤⑥⑦⑧|
口口④①
⑥口口⑦

口口口口
口口⑨口
⑩⑪⑫⑬ |⑨-⑩⑪|
⑭口⑨口 |⑫⑬⑭-|
54
⑤口①① |①②③④|
③⑧⑧⑤ |⑤⑥⑦⑧|
⑦口口口
口②⑥④

口⑩口⑩
⑬口口⑭
口⑨⑫⑨ |-⑨⑩-|
⑪口口口 |⑪⑫⑬⑭|
55
①③①③ |①--②|
口口口口 |--③-|
口口口口
口②口②

口口④口
⑤⑨⑧⑦
⑩⑪⑫口 |-④⑤⑥|
口口⑥口 |⑦⑧⑨⑩⑪⑫|
56
①①③③ |①-②-|
口口口口 |③-④-|
口口口口
②②④④

⑥⑥口⑧
⑤⑨⑪⑧
口⑤⑩⑦ |⑤-⑥⑦|
⑨⑦口口 |--⑧-⑨-⑩⑪|
57
⑤⑤①口 |①-②-|
口口口④ |③-④-|
⑥③口口 |⑤--⑥|
⑦口②口 |⑦---|
58
口口口口 |--①-|
③口口口 |②-③-|
口口②口
口①口口

⑨⑤④④
口⑨⑥⑨
⑨⑦⑨口 |④--⑤|
口口⑧⑨ |⑥⑦⑧⑨|

accuracy: 100%
最終更新:2023年03月16日 05:57