アットウィキロゴ
1
□□□□ |----|
□□∨□ |①---|
□□|□ |②---|
□□①□ |③---|

>―③□
□□□□
□②―<
□□□□

□□□□
□□□□
□3□□
□□2□
2
□□1□ |①---|
□□□□ |----|
□□□□ |--②-|
①――< |③-④-|

□□□②
④――<
□□③□
2□□□
3
□□□□ |----|
1□□□ |----|
□□②□ |----|
□①□□ |①-②-|
4
□□□□ |①---|
>――① |----|
□□□□ |--②-|
□□□□ |③-④-|

②□□□
□□□2
>―④□
□③□□
5
□□④□ |----|
③□□② |----|
□①1□ |①-②-|
□□□□ |③-④-|
6
□□□□ |①---|
□□□□ |----|
□□□□ |--②-|
①――< |③-④-|

□□□②
④――<
□□③□
2□□□
7
□②□□ |----|
1□□□ |----|
□□□□ |----|
□□①□ |①-②-|
8
□□□□ |①---|
□□□□ |----|
>――① |--②-|
□□□□ |③-④⑤|

□□□□
③⑤④□
□□□2
②□□□
9
④③②① |①②③④|
□□□□ |⑤⑥⑦⑧|
□□□□ |⑨⑩⑪⑫|
⑧⑦⑥⑤ |⑬-⑭-|

□□□⑭
□⑬□□
⑫⑪⑩⑨
□□□□
10
①□②□ |①-②-|
①□②□ |----|
□□□□ |--③-|
□□□□ |④-⑤-|

□□□□
⑤――<
□③□□
□□④□
11
□□□□ |----|
1□□□ |----|
□②□□ |----|
□□①□ |①-②-|
12
>――① |①-②-|
□□□① |----|
□□□□ |--③-|
□□□□ |④-⑤-|

□②④3
□②□□
>――⑤
③□□□
13
□□□□ |----|
②⑤□□ |--①-|
□□④1 |②-③-|
□①□③ |④-⑤-|
14
①――< |①-②-|
□□①□ |③-④-|
□③□□ |⑤-⑥-|
□□②□ |⑦-⑧-|

□□□□
④――<
□□□□
□□□□

□□□□
□⑧□⑤
□□□□
□⑦□⑥

3□□□
6□□□
□□□□
□□□□
15
□□①□ |①-②-|
□□□□ |③-④-|
①――< |⑤-⑥-|
□□□□ |⑦-⑧-|

□□□□
□□□□
□□②□
□□③□

□⑧□⑤
□□□□
□⑦□⑥
④――<

□□□□
□□□□
3□□□
6□□□
16
□⑩④□ |①-②-|
⑧⑪⑤① |③-④⑤|
③□⑥⑨ |⑥⑦⑧-|
□□⑦② |⑨-⑩⑪|
17
④□⑧③ |①②③-|
□⑧□⑥ |④-⑤-|
□①⑦□ |⑥-⑦-|
⑤②⑥⑦ |⑧---|
18
□□□□ |----|
□□□□ |----|
□□□□ |----|
□□□□ |----|
19
①□□③ |①-②-|
③□□□ |③-④-|
⑤>④② |⑤---|
□①□□ |⑥-⑦-|

□□□□
□>⑦□
□⑥6□
⑥□□□
20
①②□□ |①---|
②□□□ |②-③-|
④□□□ |④---|
⑤>③□ |⑤---|

□□□□
□□2□
□□□□
□□5□
21
①□③□ |①-②-|
③□>④ |③-④-|
⑤□□□ |⑤---|
□②□□ |⑥-⑦-|

□□>⑦
□□⑥6
□□□□
⑥□□□
22
①□②□ |①---|
②⑤⑥⑦ |②-③-|
④□>③ |④-⑤-|
⑥□□□ |⑥-⑦-|

□□□2
□□□□
□□□5
□□□□
23
①□□② |①---|
②⑤>⑥ |②-③-|
④>③□ |④---|
⑤□□□ |⑤-⑥-|

□□□□
□□□□
□□5□
□□□□
24
①□②□ |①---|
②□⑤□ |②-③-|
④□>③ |④---|
⑤⑥□□ |⑤-⑥-|

□□□□
□□□2
□□□5
□□□□
25
①□>④ |①-②-|
③③□□ |③-④-|
□□②□ |⑤-⑥-|
□□□① |⑦-⑧-|

□□⑦7
□□□□
⑤□□⑥
⑦⑧⑧□
26
□①□□ |----|
□③③③ |①-②-|
□②②□ |----|
□□□□ |③---|
27
①□□③ |①-②-|
③□□□ |③-④-|
□>④② |⑤-⑥-|
□①□□ |⑦-⑧-|

□□⑥□
□>⑧□
⑤⑦7□
⑦□□□
28
①③□□ |①-②-|
③②3□ |③-④-|
□□□□ |⑤-⑥-|
□>④□ |⑦-⑧-|

□□□□
□□□□
⑤⑧⑥□
⑦□7□
29
①□③□ |①-②-|
③□>④ |③-④-|
□□□□ |⑤-⑥-|
□②□□ |⑦-⑧-|

□□>⑧
□□⑦7
⑤□⑥□
⑦□□□
30
①□③□ |①-②-|
③⑥⑦⑧ |③-④-|
⑤②>④ |⑤-⑥-|
⑦⑧□□ |⑦-⑧-|

□□□3
□□□□
□□□6
□□□□
31
①⑥②③ |①-②-|
③⑦>⑧ |③-④-|
⑤>④□ |⑤-⑥-|
⑦□□□ |⑦-⑧-|

□□□□
□□□□
□□7□
□□□□
32
①□③⑧ |①-②-|
③⑥⑦□ |③-④-|
⑤②>④ |⑤-⑥-|
⑦□□□ |⑦-⑧-|

□□□□
□□□3
□□□7
□□□□
33
①□③□ |①-②-|
③□>④ |③-④-|
□②□□ |⑤-⑥-|
□□①□ |⑦-⑧-|

□□□□
□⑥⑧7
⑤□⑦□
⑦□□□
34
③⑥⑥③ |①-②-|
□⑦⑦□ |③-④-|
④⑦⑦⑤ |⑤-⑥-|
□①②□ |⑦---|
35
□□□□ |①---|
①□□① |②---|
□□□□ |③---|
①②③④ |④---|
36
□①⑤④ |①---|
①③①② |②-③-|
③①③① |④---|
□③□□ |⑤---|
37
②①□□ |①---|
③□①□ |②---|
④①□① |③---|
□□①□ |④---|
38
⑩⑨⑧④ |①②③④|
□⑦③□ |⑤⑥⑦⑧|
□②⑥□ |⑨---|
①⑤⑨⑩ |⑩---|
39
□□④③ |①---|
①□□② |②---|
□□□① |③---|
□□□□ |④---|
40
②①□□ |①---|
④③①③ |②-③-|
⑤①③① |④---|
□③①□ |⑤---|
41
□⑤①④ |①-②-|
□③②□ |③-④-|
⑤②⑥① |----|
④□③⑥ |⑤-⑥-|
42
③⑦⑤⑤ |①-②-|
②⑦②① |③-④-|
⑥③⑦⑦ |⑤-⑥-|
□①④⑧ |⑦-⑧-|
43
□□□□ |①---|
①□□① |②---|
□□□□ |③---|
①②③④ |④---|
44
□①⑤④ |①---|
①③①② |②-③-|
③①③① |④---|
□③□□ |⑤---|
45
②①□□ |①---|
□□①□ |②---|
□①□① |③-④-|
□□①□ |⑤-⑥-|

□□□⑤
③□⑥□
⑤□④□
□□□③
46
⑥⑤①□ |①-②-|
□□□③ |③-④-|
□④□② |⑤---|
①③⑤⑥ |⑥---|
47
□□□□ |①---|
①□□② |②---|
□□□① |③-④-⑤-|
□□□□ |⑥-⑦-⑧-|

□□⑥③
⑧⑤□□
⑦④□□
⑥③□□
48
□⑥□⑥ |①-②-|
⑥⑤□□ |③-④-|
□⑤④① |⑤---|
⑥⑤②③ |⑥---|
49
②⑩①⑩ |①②③④|
□⑧⑩⑤ |⑤⑥⑦⑧|
④⑩⑨⑨ |⑨---|
□⑥③⑦ |⑩---|
50
①□②⑭ |①②③④|
③⑤⑬④ |⑤-⑥⑦|
⑨⑫⑩⑧ |⑧⑨⑩-|
⑪⑦□⑥ |⑪⑫⑬⑭|
51
⑩①□□ |①-②-|
①⑨⑦□ |③-④-|
④⑥⑧⑤ |⑤-⑥⑦|
□□②③ |-⑧⑨⑩|
52
□□①⑩ |①-②-|
□⑦⑨① |③-④-|
⑤⑧⑥④ |⑤-⑥⑦|
③②□□ |-⑧⑨⑩|
53
⑩①□□ |①-②-|
①⑨⑦□ |③-④-|
④⑥⑧⑤ |⑤-⑥⑦|
□□②③ |-⑧⑨⑩|
54
□□①③ |①-②-|
□□□① |③-④⑤|
□□□□ |⑥⑦⑧⑨|
②□□□ |⑩⑪⑫-|

□□□□
□⑪⑥⑫
⑦⑨⑩⑧
□⑤□④
55
⑩①□□ |①-②-|
①⑨⑦□ |③-④-|
④⑥⑧⑤ |⑤-⑥⑦|
□□②③ |-⑧⑨⑩|
56
□□①⑩ |①-②-|
□⑦⑨① |③-④-|
⑤⑧⑥④ |⑤-⑥⑦|
③②□□ |-⑧⑨⑩|
57
⑩①□□ |①-②-|
①⑨⑦□ |③-④-|
④⑥⑧⑤ |⑤-⑥⑦|
□□②③ |-⑧⑨⑩|
58
□⑤⑥□ |①②-③|
③⑧⑧④ |④-⑤⑥|
⑦⑧⑧⑦ |-⑦--|
□①②□ |⑧---|
59
⑨②□① |①---|
②⑧⑥□ |②-③-|
③⑤⑦④ |④-⑤⑥|
①□②② |-⑦⑧⑨|
60
□□①⑩ |①-②-|
□⑦⑨① |③-④-|
⑤⑧⑥④ |⑤-⑥⑦|
③②□□ |-⑧⑨⑩|
61
⑩①□□ |①-②-|
①⑨⑦□ |③-④-|
④⑥⑧⑤ |⑤-⑥⑦|
□□②③ |-⑧⑨⑩|
62
□□①③ |①-②-|
□□□① |③-④⑤|
□□□□ |⑥⑦⑧⑨|
②□□□ |⑩⑪⑫-|

□□□□
□⑪⑥⑫
⑦⑨⑩⑧
□⑤□④
63
⑩①□□ |①-②-|
①⑨⑦□ |③-④-|
④⑥⑧⑤ |⑤-⑥⑦|
□□②③ |-⑧⑨⑩|
64
□□①⑩ |①-②-|
□⑦⑨① |③-④-|
⑤⑧⑥④ |⑤-⑥⑦|
③②□□ |-⑧⑨⑩|
65
⑩①□□ |①-②-|
①⑨⑦□ |③-④-|
④⑥⑧⑤ |⑤-⑥⑦|
□□②③ |-⑧⑨⑩|
66
□□①③ |①-②-|
□□□① |③-④-|
□□□□ |⑤⑥⑦⑧|
②□□④ |⑨⑩⑪⑫|

□⑤⑫□
□⑪⑥□
□⑦⑩□
□⑨⑧□
67
①□□⑤ |①-②-|
③⑩⑦② |③-④⑤|
□⑧□④ |-⑥⑦-|
□⑨⑥□ |⑧-⑨⑩|
68
⑤□②□ |-①②-|
③□⑩⑦ |③-④⑤|
④⑧①□ |-⑥⑦-|
□□⑨⑥ |⑧-⑨⑩|
69
⑦□⑩□ |-①②-|
□②⑧⑤ |③-④⑤|
⑥□⑨③ |-⑥⑦-|
□①□④ |⑧-⑨⑩|
70
□②□⑥ |-①②-|
⑤⑦□⑨ |③-④⑤|
□①□③ |--⑥-|
④□□⑧ |⑦-⑧⑨|
71
③⑦②□ |①-②-|
□□⑥□ |③-④-|
①①⑧④ |⑤-⑥-|
□⑤④□ |⑦-⑧-|
72
⑦⑦⑥② |①-②-|
③□□□ |③-④-|
①⑤□④ |⑤-⑥-|
①□⑧④ |⑦-⑧-|
73
□□□⑤ |①-②-|
⑥②①□ |③-④-|
□⑧③③ |⑤-⑥-|
①④□⑦ |⑦-⑧-|
74
②①①② |①---|
□□□□ |----|
□□□□ |----|
□□□□ |②---|
75
④①□□ |①---|
④④②□ |②---|
□③④□ |③---|
□□④④ |④---|
76
□□①⑩ |①-②-|
□⑦⑨① |③-④-|
⑤⑧⑥④ |⑤-⑥⑦|
③②□□ |-⑧⑨⑩|
77
⑩①□□ |①-②-|
①⑨⑦□ |③-④-|
④⑥⑧⑤ |⑤-⑥⑦|
□□②③ |-⑧⑨⑩|
78
□□①③ |①-②-|
□□□① |③-④⑤|
□□□□ |⑥⑦⑧⑨|
②□□□ |⑩⑪⑫-|

□□□□
□⑪⑥⑫
⑦⑨⑩⑧
□⑤□④
79
⑩①□□ |①-②-|
①⑨⑦□ |③-④-|
④⑥⑧⑤ |⑤-⑥⑦|
□□②③ |-⑧⑨⑩|
80
□□①⑩ |①-②-|
□⑦⑨① |③-④-|
⑤⑧⑥④ |⑤-⑥⑦|
③②□□ |-⑧⑨⑩|
81
⑩①□□ |①-②-|
①⑨⑦□ |③-④-|
④⑥⑧⑤ |⑤-⑥⑦|
□□②③ |-⑧⑨⑩|
82
□⑤⑥□ |①②-③|
③⑧⑧④ |④-⑤⑥|
⑦⑧⑧⑦ |-⑦--|
□①②□ |⑧---|
83
①□□② |①---|
□□□□ |②-③-|
③□□④ |④-⑤⑥|
①①②② |-⑦⑧⑨|

⑨□□□
□⑧⑥□
□⑤⑦□
□□□□
84
□□①⑩ |①-②-|
□⑦⑨① |③-④-|
⑤⑧⑥④ |⑤-⑥⑦|
③②□□ |-⑧⑨⑩|
85
⑩①□□ |①-②-|
①⑨⑦□ |③-④-|
④⑥⑧⑤ |⑤-⑥⑦|
□□②③ |-⑧⑨⑩|
86
□□①③ |①-②-|
□□□① |③-④⑤|
□□□□ |⑥⑦⑧⑨|
②□□□ |⑩⑪⑫-|

□□□□
□⑪⑥⑫
⑦⑨⑩⑧
□⑤□④
87
⑩①□□ |①-②-|
①⑨⑦□ |③-④-|
④⑥⑧⑤ |⑤-⑥⑦|
□□②③ |-⑧⑨⑩|
88
□□①⑩ |①-②-|
□⑦⑨① |③-④-|
⑤⑧⑥④ |⑤-⑥⑦|
③②□□ |-⑧⑨⑩|
89
⑩①□□ |①-②-|
①⑨⑦□ |③-④-|
④⑥⑧⑤ |⑤-⑥⑦|
□□②③ |-⑧⑨⑩|
90
□□①③ |①-②-|
□□□① |③-④-|
□□□□ |⑤⑥⑦⑧|
②□□④ |⑨⑩⑪⑫|

□⑤⑫□
□⑪⑥□
□⑦⑩□
□⑨⑧□
91
④⑤⑤① |-①--|
②⑤⑤③ |②--③|
④⑤⑤① |--④-|
②⑤⑤③ |--⑤-|
92
□□□□ |----|
□□□□ |----|
□□□□ |----|
□□□□ |----|
93
□□□□ |----|
□□□□ |----|
□□□□ |----|
□□□□ |----|
最終更新:2023年03月16日 06:44