アットウィキロゴ
I
黒魔

EXTREME

Level: 10.8
BPM: 225
Notes(hold): 1111(34)

1
口口口口 |----|
口口口口 |----|
口口口口 |----|
口口口口 |----|
2
口口口口 |----|
口口口口 |----|
口口口口 |----|
口口口口 |----|
3
口⑤口④ |①-②-|
⑧①口口 |③-④-|
②口①③ |⑤-⑥-|
⑦口⑥口 |⑦-⑧-|
4
②口⑦⑥ |①-②③|
口③①⑧ |④⑤⑥-|
④①⑨口 |⑦⑧⑨⑩|
⑪⑤口⑩ |⑪---|
5
④口⑤口 |①-②-|
口口①⑧ |③-④-|
③①口② |⑤-⑥-|
口⑥口⑦ |⑦-⑧-|
6
⑥⑦口② |①-②③|
⑧①③口 |④⑤⑥-|
口⑨①④ |⑦⑧⑨⑩|
⑩口⑤⑪ |⑪---|
7
口口⑤④ |①-②-|
口①⑦⑥ |③-④⑤|
③口⑨⑧ |⑥⑦⑧⑨|
⑪②口⑩ |⑩-⑪-|
8
②⑧口⑥ |①-②③|
③口口口 |④-⑤-|
④⑦⑨口 |⑥-⑦-|
口⑤①口 |⑧-⑨-|
9
口口口⑧ |①-②-|
口⑦①③ |③④⑤-|
口口⑨④ |⑥-⑦-|
②⑥口⑤ |⑧-⑨-|
10
①⑨口⑧ |①②③-|
②口⑤口 |④-⑤-|
③口口口 |⑥-⑦-|
口⑥④⑦ |⑧-⑨-|
11
②口④口 |①-②-|
口⑧口① |③-④-|
口口①③ |⑤-⑥-|
⑦⑤口⑥ |⑦-⑧-|
12
⑥口⑦② |①-②③|
①口③⑧ |④⑤⑥-|
①口⑨④ |⑦⑧⑨⑩|
口⑪⑤⑩ |⑪---|
13
口④口② |①-②-|
①口⑧口 |③-④-|
③①口口 |⑤-⑥-|
⑥口⑤⑦ |⑦-⑧-|
14
②⑦⑥口 |①-②③|
⑧③口① |④⑤⑥-|
④⑨口① |⑦⑧⑨⑩|
⑩⑤口⑪ |⑪---|
15
②⑦口⑥ |①-②③|
⑧③①口 |④⑤⑥-|
④⑨①口 |⑦⑧⑨⑩|
⑩⑤⑪口 |⑪---|
16
②⑦⑥口 |①-②③|
⑧③口① |④⑤⑥-|
④⑨口① |⑦⑧⑨⑩|
⑩⑤口⑪ |⑪---|
17
②⑦⑫① |①-②③|
⑬③⑧⑥ |④⑤⑥-|
④⑨口⑪ |⑦⑧⑨⑩|
口⑤⑩口 |⑪-⑫⑬|
18
④口口③ |①②③-|
口⑤口口 |④⑤⑥⑦|
⑥口①口 |----|
②⑦口口 |----|
19
⑦口①④ |①-②-|
③⑥口口 |③-④-|
口⑧⑤② |⑤-⑥-|
口⑦④① |⑦-⑧-|
20
口②口口 |①-②-|
口口①④ |③-④-|
③口口口 |----|
②口口口 |----|
21
①④⑦口 |①-②-|
②⑤⑧口 |③-④-|
口口⑥③ |⑤-⑥-|
④①口⑦ |⑦-⑧-|
22
口口口② |①-②-|
口口口③ |③-④-|
④①口口 |----|
口口②口 |----|
23
⑦①口④ |①-②-|
③⑥口口 |③-④-|
⑧②口⑤ |⑤-⑥-|
⑦①口④ |⑦-⑧-|
24
口口②口 |①-②-|
口口①④ |③-④-|
口口③口 |----|
口口②口 |----|
25
口①口④ |①-②-|
⑥口③口 |③-④-|
⑧②⑤⑦ |⑤-⑥-|
口①口④ |⑦-⑧-|
26
①③⑤⑦ |①②③④|
⑩⑪⑫⑬ |⑤⑥⑦⑧|
口⑨口⑭ |⑨-⑩⑪|
②④⑥⑧ |⑫⑬⑭-|
27
①③⑤⑦ |①-②-|
口口⑦口 |③-④-|
①⑤③口 |⑤-⑥-|
②④⑥⑧ |⑦-⑧-|
28
①③⑤⑦ |①-②-|
口①口⑤ |③-④-|
③口⑦口 |⑤-⑥-|
②④⑥⑧ |⑦-⑧-|
29
①③⑤⑦ |①-②-|
③口⑦口 |③-④-|
口①口⑤ |⑤-⑥-|
②④⑥⑧ |⑦-⑧-|
30
①③⑤⑦ |①-②-|
口口⑦口 |③-④-|
①⑤③口 |⑤-⑥-|
②④⑥⑧ |⑦-⑧-|
31
①③⑤⑦ |①-②-|
口①口⑤ |③-④-|
③口口⑦ |⑤-⑥-|
②④⑥⑧ |⑦-⑧-|
32
①③⑤口 |①-②-|
⑦⑧⑨⑩ |③-④-|
③①⑤口 |⑤-⑥-|
②④⑥口 |⑦⑧⑨⑩|
33
①④口⑧ |①-②-|
口口口口 |③-④-|
③①口⑤ |⑤-⑥-|
⑥口⑦② |⑦-⑧-|
34
②⑦⑥口 |①-②③|
⑧③①口 |④⑤⑥-|
④⑨①口 |⑦⑧⑨⑩|
⑩⑤口⑪ |⑪---|
35
②>―① |①-②-|
口口④口 |③-④-|
③>―①
口口口口

口口⑧口
口⑥口口
口口⑦口 |⑤-⑥-|
口⑤口口 |⑦-⑧-|
36
口②口⑦ |①-②-|
④⑧⑥口 |③-④-|
口③口⑦ |⑤-⑥-|
①⑤⑦口 |⑦-⑧-|
37
①―<口 |①-②-|
口口口口
①―<口
口口口口

口②⑥口
口⑧口④ |③-④-|
口口⑤口 |⑤-⑥-|
口口⑦③ |⑦-⑧-|
38
⑦⑥⑧④ |①-②-|
口口②口 |③-④-|
⑦⑤口③ |⑤-⑥-|
口①⑦口 |⑦-⑧-|
39
口口口口 |①-②-|
口>―①
口口口口
②>―①

口⑦口口
⑤③口口 |③-④-|
口⑧⑥口 |⑤-⑥-|
口④口口 |⑦-⑧-|
40
⑦口⑤口 |①-②-|
口③①⑦ |③-④-|
②口⑥口 |⑤-⑥-|
口⑧④⑦ |⑦-⑧-|
41
口口口口 |①-②-|
①―<口
口口口②
①―<口

口⑤口③
⑦④口⑦ |③-④-|
口口口口 |⑤-⑥-|
⑦口⑥⑧ |⑦-⑧-|
42
⑨⑧⑦⑥ |①②③④|
⑫⑩⑤⑫ |⑤-⑥⑦|
①②③④ |⑧⑨⑩-|
口⑪⑪口 |⑪-⑫-|
43
⑥⑤口⑥ |----|
口口口口 |①②③④|
⑦③④⑦ |⑤-⑥-|
①⑦⑦② |⑦---|
44
口⑨②⑩ |①②-③|
③①④⑧ |④-⑤⑥|
口⑦⑫口 |⑦⑧-⑨|
⑤⑪口⑥ |⑩-⑪⑫|
45
⑨口②口 |①②-③|
③①⑧⑫ |④-⑤⑥|
⑪⑦口⑥ |⑦⑧-⑨|
⑤口④⑩ |⑩-⑪⑫|
46
口③②⑧ |①②-③|
⑦①口⑫ |④-⑤⑥|
口⑪⑥⑩ |⑦⑧-⑨|
⑨⑤④口 |⑩-⑪⑫|
47
⑦⑨⑧⑩ |①②-③|
口①⑫口 |④-⑤⑥|
③口⑥口 |⑦⑧-⑨|
⑪⑤④② |⑩-⑪⑫|
48
⑩⑪⑫⑬ |①②-③|
③①口② |④-⑤⑥|
⑤⑦口⑧ |⑦⑧-⑨|
口⑨⑥④ |⑩⑪⑫⑬|
49
口口⑪⑫ |①②③-|
⑤⑥①② |④-⑤⑥|
⑦⑧③口 |⑦⑧⑨-|
⑨口⑩④ |⑩-⑪⑫|
50
⑥⑤口口 |①②③-|
口⑦①② |④--⑤|
⑦口③④ |--⑥-|
⑥⑤⑦④ |⑦---|
51
口⑧⑨口 |①②-③|
②口①⑦ |④-⑤⑥|
⑫④③口 |⑦⑧-⑨|
⑩⑥⑪⑤ |⑩-⑪⑫|
52
④⑧口③ |①②-③|
口②口⑦ |④-⑤⑥|
口⑥⑨① |⑦⑧-⑨|
⑩⑫⑪⑤ |⑩-⑪⑫|
53
⑫⑩③口 |①②-③|
②⑧①⑨ |④-⑤⑥|
④⑥口⑦ |⑦⑧-⑨|
口口⑪⑤ |⑩-⑪⑫|
54
口⑫⑬③ |①②-③|
②⑧①⑨ |④-⑤⑥|
口⑩⑤⑦ |⑦⑧-⑨|
④⑥口⑪ |⑩⑪⑫⑬|
55
③口口④ |①②③-|
②⑧④⑨ |④-⑤⑥|
①口⑧⑩ |⑦-⑧-|
⑦⑥⑤⑪ |⑨⑩⑪-|
56
⑤②③④ |①-②③|
⑤⑪⑩口 |④-⑤-|
①①⑨口 |⑥⑦⑧⑨|
⑥⑦⑧⑫ |⑩⑪⑫-|
57
⑨⑩⑦⑧ |①-②-|
口口口④ |③-④-|
①③口② |⑤⑥⑦⑧|
⑤⑥⑪⑫ |⑨⑩⑪⑫|
58
⑬口⑪⑫ |①②③④|
②⑥④⑧ |⑤⑥⑦⑧|
①⑤③⑦ |⑨⑩⑪⑫|
⑨⑩口口 |⑬---|
59
口②―< |①---|
②―<口 |----|
口口口口 |②---|
口口①① |----|
60
口①口口 |①---|
①口口口 |----|
口>―①
>―①口

口口口口
口口口口
口口口② |②---|
口口②口 |----|

口口②口
口口|②
口口∧|
口口口∧
61
∨口①口 |①---|
|∨口① |----|
①|口口 |----|
口①口口 |----|
62
口口口口 |----|
口口口口 |----|
①③口口 |①---|
口①②口 |②-③-|
63
口口口口 |①---|
>――① |----|
口口口口 |----|
口口口口 |----|
64
口口口口 |----|
口口口口 |----|
口口口口 |----|
口口口口 |----|
65
①①口口 |①---|
||口① |----|
||口口 |----|
∧∧口口 |----|
66
①①④③ |①---|
口⑤口④ |②-③-|
⑥口⑤口 |④--⑤|
口⑥②口 |--⑥-|
67
口口口口 |①---|
口口口口 |----|
>――①
①口口①

口口口口
②③④⑤
口口口② |----|
口口口口 |②③④⑤|
68
>――① |①---|
口口口口
口口口口
口口口口

③口③口
④口口口 |②-③-|
②口②口 |----|
④口口口 |--④-|
69
④口④② |--①-|
口口①③ |----|
口口④口 |②---|
口③①③ |③-④-|
70
口口口口 |①---|
②①②③ |--②-|
③①口② |----|
②③口③ |③---|
71
①――< |①-②-|
口口口口
口口口口
口口口口

③②口③
口口⑥口 |----|
口②口③ |③---|
④⑤⑥⑦ |④⑤⑥⑦|
72
口口②口 |①---|
①――< |②---|
口口②口
口口口口

④⑤口口
③⑥口口
④⑦口口 |③-④-|
口⑧口口 |⑤⑥⑦⑧|
73
口口②口 |①---|
>――① |--②-|
口口②口
>――①

口口口口
③口口口
口口口口 |----|
③口口口 |③---|
74
口口口⑥ |①---|
口②④① |②-③-|
口③⑤口 |④-⑤-|
口①①① |⑥---|
75
①①口口 |①---②-|
⑤⑦⑩② |③-④-⑤-|
③⑨⑧④ |⑥---⑦-|
口口⑥⑥ |⑧-⑨-⑩-|
76
口口⑥⑥ |①---②-|
⑤⑦⑩② |③-④-⑤-|
③⑨⑧④ |⑥---⑦-|
①①口口 |⑧-⑨-⑩-|
77
①③⑧⑫ |①-②-③-|
⑪口口④ |④-⑤-⑥-|
⑤口口⑩ |⑦-⑧-⑨-|
⑨⑦⑥② |⑩-⑪-⑫-|
78
①③⑧⑫ |①-②-③-|
口⑪④口 |④-⑤-⑥-|
⑦⑤②口 |⑦-⑧-⑨-|
⑨口⑥⑩ |⑩-⑪-⑫-|
79
③口⑨口 |①-②-③-|
⑩⑪⑫② |④-⑤-⑥-|
⑧⑥⑤④ |⑦-⑧-⑨-|
口①⑦口 |⑩-⑪-⑫-|
80
③口⑨④ |①-②-③-|
口⑫口⑤ |④-⑤-⑥-|
⑧⑪口⑥ |⑦-⑧-⑨-|
①⑩⑦② |⑩-⑪-⑫-|
81
⑦口⑫④ |①-②-③-|
①口③⑧ |④-⑤-⑥-|
⑪口⑥⑩ |⑦-⑧-⑨-|
⑤口⑨② |⑩-⑪-⑫-|
82
口①口口 |①---|
口①口口 |----|
口①口口 |----|
口①口口 |----|
83
口∨口口 |①---|
口|①口
口①|口
口口∧口

口口口口
口①―<
>―①口
口口口口

口口口口
口②②口 |②---|
口②②口 |----|
口口口口 |----|
84
口口口口 |----|
口口口口 |----|
口口口口 |----|
口口口口 |----|
85
口口口口 |----|
口口口口 |----|
口口口口 |----|
口口口口 |----|
86
口口口口 |----|
口口口口 |----|
口口口口 |----|
口口口口 |----|
87
⑥④口⑤ |①---|
①⑤⑥① |②-③-④-|
口①①③ |⑤---|
②⑥⑤口 |⑥---|
88
口⑤④⑥ |①---|
①⑥口① |②-③-④-|
③口⑤口 |⑤---|
⑤口⑥② |⑥---|
89
④⑥⑤口 |①---|
①口③① |②-③-④-|
口⑤⑥口 |⑤---|
⑥②口⑤ |⑥---|
90
⑤口⑥④ |①---|
①口⑤① |②-③-④-|
③⑥口口 |⑤---|
口⑤②⑥ |⑥---|
91
口⑤⑥④ |①---|
①③⑤① |②-③-④-|
口⑥口② |⑤---|
口⑤⑥口 |⑥---|
92
⑤⑥⑥口 |①---|
①④口① |②-③-④-|
②口⑤③ |⑤---|
⑤口口⑥ |⑥---|
93
⑫口⑪⑦ |①-②-③-|
②口⑤① |④-⑤-⑥-|
⑩④⑨口 |⑦-⑧-⑨-|
⑧⑥③口 |⑩-⑪-⑫-|
94
口⑧口⑧ |①②③-④-|
口④⑦① |⑤-⑥-⑦-|
⑨⑥⑨② |⑧---|
口口⑤③ |⑨---|
95
③口④⑤ |①---|
①⑥④① |②-③-④-|
口③⑥② |⑤---|
⑤口②口 |⑥---|
96
④⑤口口 |①---|
①⑥⑥① |②-③-④-|
②④口③ |⑤---|
口②⑤③ |⑥---|
97
⑤口④② |①---|
①⑥⑥① |②-③-④-|
口④②口 |⑤---|
③③口⑤ |⑥---|
98
⑤②④③ |①---|
①⑥⑥① |②-③-④-|
②④③口 |⑤---|
口口⑤口 |⑥---|
99
口③⑤④ |①---|
①⑥口① |②-③-④-|
③口⑥② |⑤---|
口④⑤② |⑥---|
100
②口⑤④ |①---|
①⑥⑥① |②-③-④-|
④②口③ |⑤---|
口口⑤③ |⑥---|
101
⑦③口⑥ |①-②-③-|
①⑪⑩② |④-⑤-⑥-|
口⑤④口 |⑦-⑧-⑨-|
口⑨⑫⑧ |⑩-⑪-⑫-|
102
⑧⑤⑤⑧ |①②③-④-|
①口口⑥ |⑤-⑥-⑦-|
②⑦⑦④ |⑧---|
③口口口 |----|
103
⑧口⑩口 |①---②-|
④⑦②⑨ |③-④-⑤-|
⑥⑤口③ |⑥---⑦-|
⑥①①口 |⑧-⑨-⑩-|
104
口口⑩② |①---②-|
⑥⑨③口 |③-④-⑤-|
⑥⑧④口 |⑥---⑦-|
⑦⑤①① |⑧-⑨-⑩-|
105
①①口② |①---②-|
⑥口③⑩ |③-④-⑤-|
⑥口⑨口 |⑥---⑦-|
⑦⑤⑧④ |⑧-⑨-⑩-|
106
⑧③④⑤ |①---②-|
⑥①口口 |③-④-⑤-|
⑥①口② |⑥---⑦-|
⑦口口口 |--⑧---|
107
⑮⑩⑪⑫ |①②③④⑤⑥|
⑬⑦⑧⑨ |⑦⑧⑨⑩⑪⑫|
⑬④⑤⑥ |⑬---⑭-|
⑭①②③ |--⑮---|
108
⑮⑩⑪⑫ |①②③④⑤⑥|
⑬⑦⑧⑨ |⑦⑧⑨⑩⑪⑫|
⑬④⑤⑥ |⑬---⑭-|
⑭①②③ |--⑮---|
109
⑮⑦⑭⑯ |①②③④|
⑪⑤⑫⑧ |⑤⑥⑦⑧|
⑨③④⑩ |⑨⑩⑪⑫|
⑬①⑥② |⑬⑭⑮⑯|
110
口口口口 |①---|
口口口口
口口口口
口①―<

口口口口
④②口③ |②---|
③口口④ |③---|
口口口② |④---|
111
口口口口 |①---|
口口口口 |----|
口口口口 |----|
口①口口 |----|

>―①口
>―①口
>―①口
>―①口
112
口口口口 |----|
口口口口 |----|
口口口口 |----|
口口口口 |----|
113
口口口口 |----|
口口口口 |----|
口口口口 |----|
口口口口 |----|
114
口①①口 |①---|
口①①口 |----|
口①①口 |----|
口①①口 |----|
最終更新:2023年03月16日 06:47