アットウィキロゴ
Pure Rude
kors k

BASIC

Level: 3
BPM: 175
Notes: 258

1
口口口口 |----|
口口口口 |----|
口口口口 |----|
口口口口 |----|
2
口口口口 |①---|
口①口口 |----|
口口口口 |----|
口口口口 |----|
3
口口口口 |①---|
口口①口 |----|
口口口口 |----|
口口口口 |----|
4
口口口口 |①---|
口口口口 |----|
口①口口 |----|
口口口口 |----|
5
口口口口 |①---|
口口口口 |----|
口口①口 |----|
口口口口 |----|
6
口口口口 |①---|
口口口口 |----|
①口口口 |----|
口口口口 |----|
7
口口口口 |①---|
口口口口 |----|
口口口① |----|
口口口口 |----|
8
口口口口 |①---|
①口口口 |----|
口口口口 |----|
口口口口 |----|
9
口口口口 |①---|
口口口① |----|
口口口口 |----|
口口口口 |----|
10
口①②口 |①---|
口口口口 |----|
口口口口 |②---|
口口口口 |----|
11
口口口口 |①---|
口①②口 |----|
口口口口 |②---|
口口口口 |----|
12
口口口口 |①---|
口口口口 |----|
口①②口 |②---|
口口口口 |----|
13
口口口口 |①---|
口口口口 |----|
口口口口 |②---|
口①②口 |----|
14
①口口② |①---|
口口口口 |----|
口口口口 |②---|
口口口口 |----|
15
口口口口 |①---|
①口口② |----|
口口口口 |②---|
口口口口 |----|
16
口口口口 |①---|
口口口口 |----|
①口口② |②---|
口口口口 |----|
17
口口口口 |①---|
口口口口 |----|
口口口口 |----|
①口口口 |----|
18
口口口口 |①---|
口口口口 |②---|
口③②① |③---|
口口口口 |----|
19
口口口口 |①---|
口③②① |②---|
口口口口 |③---|
口口口口 |----|
20
口口口口 |①---|
口口口口 |②---|
①②③口 |③---|
口口口口 |----|
21
口口口口 |①---|
①②③口 |②---|
口口口口 |③---|
口口口口 |----|
22
口口口③ |①---|
口口口② |②---|
口口口① |③---|
口口口口 |----|
23
③口口口 |①---|
②口口口 |②---|
①口口口 |③---|
口口口口 |----|
24
口口③口 |①---|
口口②口 |②---|
口口①口 |③---|
口口口口 |----|
25
口口口口 |①---|
口口口口 |----|
口①①口 |----|
口口口口 |----|
26
口口口口 |①---|
口口①① |----|
②②口口 |②---|
口口口口 |----|
27
①①口口 |①---|
口口③③ |----|
口口②② |②---|
口口口口 |③---|
28
口口口口 |----|
②②口口 |①---|
①①口口 |②---|
口口口口 |----|
29
口口口口 |----|
口口口口 |----|
口口口口 |----|
口口口口 |----|
30
口口口口 |①---|
口口①① |----|
②②口口 |②---|
口口口口 |----|
31
①①口口 |①---|
口口③③ |----|
口口②② |②---|
口口口口 |③---|
32
口口口口 |----|
②②口口 |①---|
①①口口 |②---|
口口口口 |----|
33
口口口口 |①---|
口口口口 |----|
口口口口 |----|
口①①口 |----|
34
口口口口 |①---|
口口口口 |②---|
④③②① |③---|
口口口口 |④---|
35
口②②口 |①---|
口①①口 |----|
口口口口 |②---|
口口口口 |----|
36
口口口口 |①---|
口口口口 |②---|
①②③④ |③---|
口口口口 |④---|
37
口②②口 |①---|
口①①口 |----|
口口口口 |②---|
口口口口 |----|
38
口口口口 |①---|
口口口口 |②---|
④③②① |③---|
口口口口 |④---|
39
口②②口 |①---|
口①①口 |----|
口口口口 |②---|
口口口口 |----|
40
口口口口 |①---|
口口口口 |②---|
①②③④ |③---|
口口口口 |④---|
41
④③②① |①---|
口口口口 |②---|
口口口口 |③---|
口口口口 |④---|
42
口口口口 |①---|
口③①口 |②---|
口④②口 |③---|
口口口口 |④---|
43
口口口口 |①---|
③口口① |②---|
④口口② |③---|
口口口口 |④---|
44
口口口口 |①---|
口③①口 |②---|
口④②口 |③---|
口口口口 |④---|
45
口③③口 |①---|
口口口① |②---|
口口口② |③---|
口口口口 |----|
46
口口口口 |①---|
口④②口 |②---|
口③①口 |③---|
口口口口 |④---|
47
口口口口 |①---|
④口口② |②---|
③口口① |③---|
口口口口 |④---|
48
口口口口 |①---|
口④②口 |②---|
口③①口 |③---|
口口口口 |④---|
49
口口口口 |①---|
口口口② |②---|
口口口① |③---|
口③③口 |----|
50
口口口口 |①---|
口①①口 |----|
②口口② |----|
口口口口 |②---|
51
①口口① |----|
口②②口 |①---|
口口口口 |----|
口口口口 |②---|
52
口口口口 |----|
口口口口 |----|
①口口① |----|
口口口口 |①---|
53
①口口① |----|
口口口口 |①---|
口口口口 |----|
口口口口 |----|
54
口口口口 |①---|
口①①口 |----|
②口口② |----|
口口口口 |②---|
55
①口口① |----|
口口口口 |①---|
口口口口 |----|
口口口口 |----|
56
口口口口 |①---|
口①①口 |----|
②口口② |----|
口口口口 |②---|
57
①口口① |----|
口口口口 |①---|
口口口口 |----|
口口口口 |----|
58
口口口口 |①---|
口①②口 |----|
口口口口 |②---|
口口口口 |----|
59
口口口口 |①---|
口口口口 |----|
口①②口 |②---|
口口口口 |----|
60
口口口口 |①---|
①口口② |----|
口口口口 |②---|
口口口口 |----|
61
口口口口 |①---|
口口口口 |----|
①口口② |②---|
口口口口 |----|
62
①口口口 |①---|
口②口口 |----|
口口口口 |②---|
口口口口 |----|
63
口口口② |①---|
口口①口 |----|
口口口口 |②---|
口口口口 |----|
64
口口口口 |①---|
口口口口 |----|
口②口口 |②---|
①口口口 |----|
65
口口口口 |①---|
口口口口 |----|
口口①口 |②---|
口口口② |----|
66
口口口口 |①---|
口口①口 |----|
口②口口 |②---|
口口口口 |----|
67
口①口口 |①---|
口口口③ |----|
口口②口 |②---|
口口口口 |③---|
68
口口口口 |----|
②口口口 |①---|
口①口口 |②---|
口口口口 |----|
69
口口口口 |----|
口口口口 |----|
口口口口 |----|
口口口口 |----|
70
口口口口 |①---|
口①口口 |----|
口口②口 |②---|
口口口口 |----|
71
口口①口 |①---|
③口口口 |----|
口②口口 |②---|
口口口口 |③---|
72
口口口口 |----|
口口口② |①---|
口口①口 |②---|
口口口口 |----|
73
口①①口 |①---|
口口口口 |----|
口口口口 |----|
口口口口 |----|
74
口口口口 |①---|
口口①① |----|
②②口口 |②---|
口口口口 |----|
75
①①口口 |①---|
口口③③ |----|
口口②② |②---|
口口口口 |③---|
76
口口口口 |----|
②②口口 |①---|
①①口口 |②---|
口口口口 |----|
77
口口口口 |----|
口口口口 |----|
口口口口 |----|
口口口口 |----|
78
口口口口 |①---|
口口①① |----|
②②口口 |②---|
口口口口 |----|
79
①①口口 |①---|
口口③③ |----|
口口②② |②---|
口口口口 |③---|
80
口口口口 |----|
②②口口 |①---|
①①口口 |②---|
口口口口 |----|
81
口口口口 |①---|
口口口口 |----|
口口口口 |----|
口①①口 |----|
82
口口口口 |①---|
①①口口 |----|
口口②② |②---|
口口口口 |----|
83
口口①① |①---|
③③口口 |----|
②②口口 |②---|
口口口口 |③---|
84
口口口口 |----|
口口②② |①---|
口口①① |②---|
口口口口 |----|
85
口口口口 |----|
口口口口 |----|
口口口口 |----|
口口口口 |----|
86
口口口口 |①---|
①①口口 |----|
口口②② |②---|
口口口口 |----|
87
口口①① |①---|
③③口口 |----|
②②口口 |②---|
口口口口 |③---|
88
口口口口 |----|
口口②② |①---|
口口①① |②---|
口口口口 |----|
89
口口口口 |①---|
口口口口 |----|
口口口口 |----|
口①①口 |----|
90
口口口口 |①---|
口①①口 |----|
口口口口 |----|
口口口口 |----|

accuracy: 100%
最終更新:2023年10月12日 10:41