アットウィキロゴ
Pure Rude
kors k

ADVANCED

Level: 7
BPM: 175
Notes: 503

1
口口口口 |----|
口口口口 |----|
口口口口 |----|
口口口口 |----|
2
口口口② |①---|
口④口口 |②---|
口口①口 |--③-|
③口口口 |--④-|
3
③口口② |①---|
口口①口 |②---|
口口口口 |--③-|
口口口口 |----|
4
口口②口 |①---|
口口口口 |②---|
口④①口 |--③-|
口③口口 |--④-|
5
口口口口 |--①-|
口①口② |----|
口口口口 |②---|
③口口口 |③---|
6
口口口② |①---|
口④口口 |②---|
口口①口 |--③-|
③口口口 |--④-|
7
②口口③ |①---|
口口①口 |--②-|
口口口口 |----|
口口口口 |③---|
8
口③②口 |①---|
口④口口 |②---|
口口①口 |--③-|
口口口口 |--④-|
9
口口口口 |--①-|
口口口口 |--②-|
④①口口 |③---|
口②③口 |④---|
10
口口③② |①---|
口⑤口口 |②-③-|
口口①口 |--④-|
④口口口 |--⑤-|
11
④⑤③② |①---|
口口①口 |②-③-|
口口口口 |--④-|
口口口口 |⑤---|
12
口口②③ |①---|
口口口口 |②-③-|
口⑤①口 |--④-|
口④口口 |--⑤-|
13
口口口口 |--①-|
口①口② |----|
口口口口 |②---|
③口口口 |③---|
14
口口③② |①---|
口⑤口口 |②-③-|
口口①口 |--④-|
④口口口 |--⑤-|
15
②③口④ |①---|
口口①口 |--②-|
口口口口 |③---|
口口口口 |④---|
16
口③②口 |①---|
口④口口 |②---|
口口①口 |--③-|
口口口口 |--④-|
17
口口口口 |①---|
口口口口 |----|
口口口口 |----|
①口口① |----|
18
口口③② |①---|
口⑤口口 |②-③-|
口口①口 |--④-|
④口口口 |--⑤-|
19
④⑤③② |①---|
口口①口 |②-③-|
口口口口 |--④-|
口口口口 |⑤---|
20
口口②③ |①---|
口口口口 |②-③-|
口⑤①口 |--④-|
口④口口 |--⑤-|
21
口口口口 |--①-|
口①口② |----|
口口口口 |②---|
③口口口 |③---|
22
口口③② |①---|
口⑤口口 |②-③-|
口口①口 |--④-|
④口口口 |--⑤-|
23
②③口④ |①---|
口口①口 |--②-|
口口口口 |③---|
口口口口 |④---|
24
口③②口 |①---|
口④口口 |②---|
口口①口 |--③-|
口口口口 |--④-|
25
口口口口 |--①-|
口口口口 |--②-|
④①口口 |③---|
口②③口 |④---|
26
③③①① |①---|
口口口口 |②---|
口④②口 |③---|
口口口口 |④---|
27
口口口口 |①---|
③④②① |②---|
口口口口 |③---|
③④①口 |④---|
28
③口②② |①---|
口口口口 |②---|
③口口① |③---|
口④口口 |④---|
29
口口口口 |①---|
③口口① |②---|
④口口⑤ |③---|
口口②口 |④-⑤-|
30
①①③③ |①---|
口口口口 |②---|
口②④口 |③---|
口口口口 |④---|
31
口口口口 |①---|
①②④③ |②---|
口口口口 |③---|
口①④③ |④---|
32
②②口③ |①---|
口口口口 |②---|
①口口③ |③---|
口口④口 |④---|
33
口口口口 |①---|
口①①口 |----|
口①①口 |----|
口口口口 |----|
34
口口口① |①---|
口口口① |②-③-|
口口⑥⑤ |④---|
②③④口 |⑤-⑥-|
35
口⑤⑥口 |①--②|
口③④口 |--③-|
口①口口 |④-⑤-|
口口口② |⑥---|
36
①口口口 |①---|
①口口口 |②-③-|
⑤⑥口口 |④---|
口④③② |⑤-⑥-|
37
口⑥⑤口 |①--②|
口④③口 |--③-|
口口①口 |④-⑤-|
②口口口 |⑥---|
38
口口口① |①---|
口口口① |②-③-|
口口⑥⑤ |④---|
②③④口 |⑤-⑥-|
39
口⑤⑥口 |①--②|
口③④口 |--③-|
口①口口 |④-⑤-|
口口口② |⑥---|
40
①口口⑤ |①-②-|
②口口⑥ |③-④-|
③口口⑦ |⑤-⑥-|
④口口⑧ |⑦-⑧-|
41
口①①口 |①---|
口③③口 |②---|
口②②口 |③---|
口④④口 |④---|
42
①③⑤⑦ |①-②-|
口口口口 |③-④-|
②④⑥⑧ |⑤-⑥-|
口口口口 |⑦-⑧-|
43
口口口口 |①-②-|
①③⑤⑦ |③-④-|
口口口口 |⑤-⑥-|
②④⑥⑧ |⑦-⑧-|
44
⑦⑤③① |①-②-|
口口口口 |③-④-|
⑧⑥④② |⑤-⑥-|
口口口口 |⑦-⑧-|
45
口口口口 |①-②-|
⑦⑤③① |③-④-|
口口口口 |⑤-⑥-|
口⑥④② |⑦---|
46
⑦⑤③① |①-②-|
⑧⑥④② |③-④-|
口口口口 |⑤-⑥-|
口口口口 |⑦-⑧-|
47
口口口口 |①-②-|
口口口口 |③-④-|
⑦⑤③① |⑤-⑥-|
⑧⑥④② |⑦-⑧-|
48
①③⑤⑦ |①-②-|
②④⑥⑧ |③-④-|
口口口口 |⑤-⑥-|
口口口口 |⑦-⑧-|
49
口口口口 |①-②-|
口口口口 |③-④-|
①③⑤⑦ |⑤-⑥-|
②④⑥口 |⑦---|
50
口口口口 |①-②-|
③①①⑤ |③-④-|
⑥口口⑦ |⑤-⑥-|
②⑥⑦④ |⑦---|
51
①口口② |--①-|
口①②口 |②---|
口口口口 |----|
④③③口 |③-④-|
52
口⑤口口 |①-②-|
①口口③ |③-④-|
⑦④口⑥ |⑤-⑥-|
口⑦⑥② |⑦---|
53
②③③① |--①-|
口②①口 |②---|
口口口口 |③---|
口④④口 |④---|
54
口口口口 |①-②-|
⑤口口③ |③-④-|
⑦①①⑥ |⑤-⑥-|
④⑦⑥② |⑦---|
55
②口口① |--①-|
口②①口 |②---|
④③③⑤ |③---|
口口口口 |④-⑤-|
56
口①①口 |①-②-|
③口口⑤ |③-④-|
⑥口口⑦ |⑤-⑥-|
②⑥⑦④ |⑦---|
57
①口口② |--①-|
口①②口 |②---|
口③③口 |----|
口口口口 |③---|
58
口②③口 |①---|
①口口④ |②---|
口口口口 |③---|
口口口口 |④---|
59
口口口口 |①---|
口口口口 |②---|
口②③口 |③---|
①口口④ |④---|
60
口口口口 |①---|
口口口口 |②---|
④口口① |③---|
口③②口 |④---|
61
④口口① |①---|
口③②口 |②---|
口口口口 |③---|
口口口口 |④---|
62
口口口口 |①---|
口口口口 |②---|
口②口④ |③---|
①口③口 |④---|
63
④口②口 |①---|
口③口① |②---|
口口口口 |③---|
口口口口 |④---|
64
口②口④ |①---|
口口口口 |②---|
①口③口 |③---|
口口口口 |④---|
65
口口口口 |①---|
④口②口 |②---|
口口口口 |③---|
口③口① |④---|
66
③③①① |①---|
口口口口 |②---|
口④②口 |③---|
口口口口 |④---|
67
口口口口 |①---|
③④②① |②---|
口口口口 |③---|
③④①口 |④---|
68
③口②② |①---|
口口口口 |②---|
③口口① |③---|
口④口口 |④---|
69
口口口口 |①---|
③口口① |②---|
④口口口 |③---|
口口②口 |④---|
70
口口①口 |①---|
口口②口 |②---|
口口③口 |③---|
口口④口 |④---|
71
口①口口 |①---|
口②口口 |②---|
口③口口 |③---|
口④口口 |④---|
72
②口口① |①-②-|
④口口③ |③-④-|
⑥口口⑤ |⑤-⑥-|
⑧口口⑦ |⑦-⑧-|
73
口口口口 |①---|
口①①口 |②---|
口②②口 |③---|
口③③口 |----|
74
③③①① |①---|
口口口口 |②---|
口④②口 |③---|
口口口口 |④---|
75
口口口口 |①---|
③④②① |②---|
口口口口 |③---|
③④①口 |④---|
76
③口②② |①---|
口口口口 |②---|
③口口① |③---|
口④口口 |④---|
77
口口口口 |①---|
③口口① |②---|
④口口⑤ |③---|
口口②口 |④-⑤-|
78
①①③③ |①---|
口口口口 |②---|
口②④口 |③---|
口口口口 |④---|
79
口口口口 |①---|
①②④③ |②---|
口口口口 |③---|
口①④③ |④---|
80
②②口③ |①---|
口口口口 |②---|
①口口③ |③---|
口口④口 |④---|
81
口口口口 |①---|
③①①口 |②---|
口口口口 |③---|
④口口② |④---|
82
③③①① |①---|
口口口口 |②---|
口④②口 |③---|
口口口口 |④---|
83
口口口口 |①---|
③④②① |②---|
口口口口 |③---|
③④①口 |④---|
84
③口②② |①---|
口口口口 |②---|
③口口① |③---|
口④口口 |④---|
85
口口口口 |①---|
③口口① |②---|
④口口⑤ |③---|
口口②口 |④-⑤-|
86
①①③③ |①---|
口口口口 |②---|
口②④口 |③---|
口口口口 |④---|
87
口口口口 |①---|
①②④③ |②---|
口口口口 |③---|
口①④③ |④---|
88
②②口③ |①---|
口口口口 |②---|
①口口③ |③---|
口口④口 |④---|
89
口口口口 |①---|
口①①口 |----|
口①①口 |----|
口口口口 |----|
90
①口口① |①---|
口口口口 |----|
口口口口 |----|
口口口口 |----|

accuracy: 100%
最終更新:2023年10月12日 11:29