アットウィキロゴ
Pure Rude
kors k

EXTREME

Level: 9.4
BPM: 175
Notes: 924

1
口口口口 |----|
口口口口 |----|
口口口口 |----|
口口口口 |----|
2
口口口口 |①---|
④①①⑤ |②-③-|
口④⑤口 |--④-|
②口口③ |--⑤-|
3
口①①口 |①---|
④口口⑤ |②-③-|
②口口③ |--④-|
口口口口 |⑤---|
4
③①①口 |①---|
口③口口 |②---|
口②②口 |--③-|
④口口④ |--④-|
5
口②口① |--①-|
②口①口 |----|
口口口③ |②---|
口口③口 |③---|
6
口口口口 |①---|
口①①口 |②-③-|
④口口⑤ |--④-|
②④⑤③ |--⑤-|
7
④①①④ |①---|
口口口口 |--②-|
口②③口 |③---|
口口口口 |④---|
8
③口口③ |①---|
口②②口 |②---|
口④④口 |--③-|
口①①口 |--④-|
9
口口③口 |--①-|
口④④口 |--②-|
口口口口 |③---|
②①①口 |④---|
10
①口口① |①---|
②口口③ |②-③-|
④口⑤口 |④-⑤-|
⑥口②⑦ |⑥-⑦-|
11
①①③⑥ |①---|
②口口② |②-③-|
④口⑤口 |④-⑤-|
⑥口口口 |⑥---|
12
①口⑤口 |①---|
②口①口 |②-③-|
④口⑦③ |④-⑤-|
⑥口②口 |⑥-⑦-|
13
①口口④ |①-②-|
③口口② |③---|
④口口口 |④---|
⑤口口⑤ |⑤---|
14
①⑨⑮⑩ |①②③④|
⑤⑬②⑥ |⑤⑥⑦⑧|
⑪③⑧⑫ |⑨⑩⑪⑫|
⑭⑦④⑯ |⑬⑭⑮⑯|
15
①⑨⑭⑩ |①②③④|
⑤⑬②⑥ |⑤⑥⑦⑧|
⑪③⑧⑫ |⑨⑩⑪⑫|
⑮⑦④⑯ |⑬⑭⑮⑯|
16
①⑨⑭⑩ |①②③④|
⑤⑬②⑥ |⑤⑥⑦⑧|
⑪③⑧⑫ |⑨⑩⑪⑫|
⑮⑦④⑯ |⑬⑭⑮⑯|
17
①口口口 |①---|
口口口口 |----|
口①口口 |----|
口口口口 |----|
18
①口③① |①---|
②口⑤口 |②-③-|
④口①② |④-⑤-|
⑥口⑦口 |⑥-⑦-|
19
①口③① |①---|
②口⑤⑥ |②-③-|
④口①② |④-⑤-|
⑥口口口 |⑥---|
20
①②②口 |①---|
②口口口 |②---|
口①①口
口口口口

口口口④
口口口口
③⑥口④ |③-④-|
⑤口⑥口 |⑤-⑥-|
21
①②②口 |①-②-|
③④口④ |③---|
④口口口 |④---|
⑤⑤口⑤ |⑤---|
22
①口③① |①---|
②口⑤口 |②-③-|
④口①② |④-⑤-|
⑥口⑦口 |⑥-⑦-|
23
①口口① |①---|
②口④④ |②-③-|
④口①③ |④---|
⑤口⑤⑤ |⑤---|
24
①②②口 |①---|
②口口口 |②---|
口①①口
口口口口

口口口口
口口口④
③⑥⑦口 |③-④-|
⑤口口④ |⑤-⑥⑦|
25
①口②① |①---|
口②口② |----|
口口③口 |②---|
口③口③ |③---|
26
口①口口 |①-②-|
①⑦③⑤ |③-④-|
②口⑥⑤ |⑤-⑥-|
口⑧④口 |⑦-⑧-|
27
①①⑦⑧ |①-②-|
②口③⑦ |③-④-|
⑥⑤口④ |⑤-⑥-|
⑤口口口 |⑦-⑧-|
28
①口口口 |①-②-|
②⑤口⑧ |③-④-|
⑥⑤③⑦ |⑤-⑥-|
口口③④ |⑦-⑧-|
29
①⑥③口 |①-②-|
⑤口⑦口 |③-④-|
口口口口 |⑤⑥⑦-|
⑧②⑨④ |⑧-⑨-|
30
口口口口 |①-②-|
口③口① |③-④-|
口口②①
口④口口

口口口⑦
⑤口口⑧
⑤⑥口口 |⑤-⑥-|
口口口口 |⑦-⑧-|
31
①①⑦⑧ |①-②-|
⑤②⑦口 |③-④-|
⑤⑥口③ |⑤-⑥-|
口口④口 |⑦-⑧-|
32
③④口口 |①-②-|
口③口② |③-④-|
口⑦⑥⑤ |⑤-⑥-|
⑧口⑤① |⑦-⑧-|
33
⑤口⑦口 |①-②-|
①⑥口③ |③-④-|
口口口口 |⑤⑥⑦-|
⑧②④⑨ |⑧-⑨-|
34
口口口⑥ |①-②③|
⑤口④口 |④⑤⑥-|
③①口②
口口口口

⑦⑪⑫口
口⑨口⑩
口⑬⑧口 |⑦-⑧⑨|
口口口口 |⑩⑪⑫⑬|
35
口口口口 |①②-③|
③口②口 |--④⑤|
③口口口
④⑤口①

⑦⑧⑨口
口口口⑩
口口口口 |⑥-⑦⑧|
口口⑥⑩ |⑨-⑩-|
36
口口口⑥ |①-②③|
⑤口④口 |④⑤⑥-|
③①口②
口口口口

⑦⑪⑫口
口⑨口⑩
口⑬⑧口 |⑦-⑧⑨|
口口口口 |⑩⑪⑫⑬|
37
⑦⑧⑨口 |①②-③|
③口②口 |--④⑤|
③口口口 |⑥-⑦⑧|
④⑤⑥① |⑨---|
38
口口口⑥ |①-②③|
⑤口④口 |④⑤⑥-|
③①口②
口口口口

⑦⑪⑫口
口⑨口⑩
口⑬⑧口 |⑦-⑧⑨|
口口口口 |⑩⑪⑫⑬|
39
口口口口 |①②-③|
③口②口 |--④⑤|
③口口口
④⑤口①

⑦⑧⑨口
口口口⑩
口口口口 |⑥-⑦⑧|
口口⑥⑩ |⑨-⑩-|
40
⑦口口⑥ |①②③④|
口②③口 |⑤-⑥⑦|
①⑦⑥④
口⑤口口

口⑧⑧口
口口口⑨
⑩口口口 |--⑧-|
口口口⑪ |⑨⑩⑪-|
41
②口口③ |①---|
①①口口 |②---|
口③②④ |③-④-|
⑤④⑤口 |⑤---|
42
②①③④ |①-②-|
①②④③ |③-④-|
⑧⑦⑤⑥ |⑤-⑥-|
⑦⑧⑥⑤ |⑦-⑧-|
43
②①③口 |①-②-|
①②④③ |③---|
口口口口 |④-⑤-|
⑦⑥⑤④ |⑥-⑦-|
44
②①③④ |①-②-|
⑧⑦⑤⑥ |③-④-|
①②④③ |⑤-⑥-|
⑦⑧⑥⑤ |⑦-⑧-|
45
②①③口 |①-②-|
口口④口 |③④⑤⑥|
①②⑤⑦ |⑦-⑧-|
⑧⑨⑥⑨ |⑨---|
46
④①③② |①-②-|
③②④① |③-④-|
⑥⑦⑤⑧ |⑤-⑥-|
⑤⑧⑥⑦ |⑦-⑧-|
47
口①③② |①-②-|
③②④① |③---|
口口口口 |④-⑤-|
④⑥⑤⑦ |⑥-⑦-|
48
④①③② |①-②-|
⑥⑦⑤⑧ |③-④-|
③②④① |⑤-⑥-|
⑤⑧⑥⑦ |⑦-⑧-|
49
口①③② |①-②-|
⑨口④⑨ |③④⑤⑥|
⑦②⑤① |⑦-⑧-|
口口⑥⑧ |⑨---|
50
②③④口 |①-②③|
⑧口⑩⑨ |④-⑤⑥|
⑨①口⑧ |⑦-⑧-|
⑤⑥⑦口 |⑨-⑩-|
51
②④口③ |①-②-|
⑤口⑦口 |③-④-|
口③②⑥ |⑤-⑥-|
⑧⑨口① |⑦-⑧⑨|
52
②③④口 |①-②③|
⑧⑩口⑨ |④-⑤⑥|
⑤⑥⑦口 |⑦-⑧-|
⑨口①⑧ |⑨-⑩-|
53
②口口③ |①-②-|
⑤口①⑥ |③--④|
⑤④④⑥ |--⑤-|
口③②口 |⑥---|
54
②③④口 |①-②③|
口①①口 |④-⑤⑥|
口口口口
⑤⑥口口

口口口口
⑧口⑩⑨
⑨口口⑧ |⑦-⑧-|
口口⑦口 |⑨-⑩-|
55
②④口③ |①-②-|
⑤⑧⑦⑦ |③-④-|
⑧③②⑥ |⑤-⑥-|
口口口① |⑦-⑧-|
56
⑤⑥⑦口 |①-②③|
⑧口口⑨ |④-⑤⑥|
⑨⑩①⑧ |⑦-⑧-|
②③④① |⑨-⑩-|
57
⑥口口⑤ |①-②-|
⑧③②⑦ |③-④-|
口口①⑨ |⑤⑥⑦⑧|
②④④③ |⑨---|
58
⑤口③⑥ |①-②-|
口②口口 |③-④-|
口④口⑧ |⑤-⑥-|
①⑦口口 |⑦-⑧-|
59
⑤口⑥口 |①-②-|
口②口口 |③-④-|
⑦④③⑧ |⑤-⑥-|
①口口口 |⑦-⑧-|
60
口口⑧③ |①-②-|
口口⑥口 |③-④-|
⑦口②口 |⑤-⑥-|
④①口⑤ |⑦-⑧-|
61
口口口⑥ |①-②-|
①⑦⑧③ |③-④-|
口口⑤口 |⑤-⑥-|
④口②口 |⑦-⑧-|
62
口⑤③口 |①-②-|
②口口口 |③-④-|
④口⑧⑥ |⑤-⑥-|
⑦①口口 |⑦-⑧-|
63
口⑤口③ |①-②-|
②口口口 |③-④-|
④口口⑥ |⑤-⑥-|
⑦①口⑧ |⑦-⑧-|
64
口口⑥口 |①-②-|
④口⑧③ |③-④-|
口①口⑤ |⑤-⑥-|
⑦口②口 |⑦-⑧-|
65
口口⑥③ |①-②-|
④口⑧口 |③-④-|
口⑦②⑤ |⑤-⑥-|
口①口口 |⑦-⑧-|
66
①口口口 |①---|
口④口③ |②---|
①口口口 |③---|
口口②③ |④---|
67
口③④口 |①---|
①口口口 |②---|
③口②④ |③---|
口①口口 |④---|
68
口口④口 |①---|
②口①② |②---|
口口口口 |③---|
口③③口 |④---|
69
口③口口 |①---|
口⑤④口 |②---|
①口②口 |③---|
口口口口 |④-⑤-|
70
②⑥③⑦ |①②③④|
⑧口口口 |⑤⑥⑦⑧|
口④口⑤
口口口①

⑯口口口
口口⑪⑮
⑫口⑨口 |⑨⑩⑪⑫|
⑭⑩⑬口 |⑬⑭⑮⑯|
71
口④③⑤ |①②③④|
口⑥口口 |⑤⑥⑦⑧|
口②⑦口
口⑧口①

⑭口口口
⑩口⑨⑬
⑫⑯口⑪ |⑨⑩⑪⑫|
口口口⑮ |⑬⑭⑮⑯|
72
口④①口 |①②③④|
口⑧⑦口 |⑤⑥⑦⑧|
口口⑤口
②⑥③口

⑬口口⑨
⑭口口⑩
⑮口口⑪ |⑨⑩⑪⑫|
⑯口口⑫ |⑬⑭⑮⑯|
73
④①①④ |①---|
口③②口 |②---|
口④④口 |③---|
口②③口 |④---|
74
口①口口 |①-②-|
①⑦③⑤ |③-④-|
②口⑥⑤ |⑤-⑥-|
口⑧④口 |⑦-⑧-|
75
①①⑦⑧ |①-②-|
②口③⑦ |③-④-|
⑥⑤口④ |⑤-⑥-|
⑤口口口 |⑦-⑧-|
76
①口口口 |①-②-|
②⑤口⑧ |③-④-|
⑥⑤③⑦ |⑤-⑥-|
口口③④ |⑦-⑧-|
77
①⑥③口 |①-②-|
⑤口⑦口 |③-④-|
口口口口 |⑤⑥⑦-|
⑧②⑨④ |⑧-⑨-|
78
口口口口 |①-②-|
口③口① |③-④-|
口口②①
口④口口

口口口⑦
⑤口口⑧
⑤⑥口口 |⑤-⑥-|
口口口口 |⑦-⑧-|
79
①①⑦⑧ |①-②-|
⑤②⑦口 |③-④-|
⑤⑥口③ |⑤-⑥-|
口口④口 |⑦-⑧-|
80
③④口口 |①-②-|
口③口② |③-④-|
口⑦⑥⑤ |⑤-⑥-|
⑧口⑤① |⑦-⑧-|
81
⑤口⑦口 |①-②-|
①⑥口③ |③-④-|
口口口口 |⑤⑥⑦-|
⑧②④⑨ |⑧-⑨-|
82
口①口口 |①-②-|
①⑦③⑤ |③-④-|
②口⑥⑤ |⑤-⑥-|
口⑧④口 |⑦-⑧-|
83
①①⑦⑧ |①-②-|
②口③⑦ |③-④-|
⑥⑤口④ |⑤-⑥-|
⑤口口口 |⑦-⑧-|
84
①口口口 |①-②-|
②⑤口⑧ |③-④-|
⑥⑤③⑦ |⑤-⑥-|
口口③④ |⑦-⑧-|
85
①⑥③口 |①-②-|
⑤口⑦口 |③-④-|
口口口口 |⑤⑥⑦-|
⑧②⑨④ |⑧-⑨-|
86
⑤⑩⑥口 |①-②③|
口④⑪① |④-⑤⑥|
口⑦③① |⑦-⑧⑨|
⑧②口⑨ |⑩-⑪-|
87
⑥⑪④⑤ |①-②③|
①③⑫⑩ |④-⑤⑥|
①⑨②口 |⑦-⑧⑨|
口口⑦⑧ |⑩-⑪⑫|
88
⑦口④口 |①②③④|
③口口口 |⑤⑥⑦⑧|
口口⑥②
①⑤⑧口

口⑬口⑩
口⑨⑭口
⑪口口⑯ |⑨⑩⑪⑫|
⑮口口⑫ |⑬⑭⑮⑯|
89
⑤口⑦口 |①-②-|
①⑥口③ |③-④-|
口口口口 |⑤⑥⑦-|
⑧②④⑨ |⑧-⑨-|
90
口口口口 |①---|
口口口口 |----|
口①①口 |----|
口口口口 |----|

accuracy: 100%
最終更新:2023年10月12日 11:49