アットウィキロゴ
BPM:160(160.5)
1
□□□□ |①---|
□>□② |----|
□□□□ |②---|
①□□< |----|
2
□□□□ |----|
□□□1 |----|
□□①< |①---|
□□□□ |----|
3
>□□① |①---|
□□□□ |----|
□□1□ |----|
□□□□ |②---|

□□□2
□□□□
□□□□
2□□□
4
①□□< |①---|
□>②□ |----|
□③<□ |②---|
□□□□ |③---|

2□□□
□□3□
□□□□
□□□□
5
□□□□ |①---|
□□□□ |----|
□1□□ |----|
>□□① |----|
6
□□□□ |----|
□□□□ |----|
□□□□ |----|
□□□1 |①---|
7
□□□□ |①-②-|
□□□□ |③-④-|
□□□□ |⑤-⑥-|
①□□< |⑦-⑧-|

□⑧⑦□
□⑥⑤□
□④③□
7②①□
8
④□⑦③ |①-②-③-|
②⑥⑤⑦ |④-⑤-⑥-|
④②③① |⑦---|
□⑥①⑤ |⑧-⑨-|

□⑨□⑨
□□□□
□□□□
⑧□⑧□
9
□□□□ |①--②|
②□□□ |--③-|
②□①① |----|
□□□□ |----|

□□③□
□□□③
□□∧□
□□□∧
10
□①1□ |----|
①□□1 |----|
□②③④ |①-②③|
□⑥⑤□ |④-⑤⑥|
11
□③□④ |①--②|
□□②□ |--③-|
①③④□ |-④--|
①□□② |⑤---|

∨□□□
□∨□□
⑤□□□
□⑤□□
12
⑤④③② |----|
□□⑥□ |---①|
1⑦□□ |②③④⑤|
□1□□ |-⑥⑦-|
13
□□□□ |①--②|
②□□□ |--③-|
②□①① |----|
□□□□ |----|

□□③□
□□□③
□□∧□
□□□∧
14
□□1□ |----|
①②□1 |----|
□□③④ |①②③④|
□⑤□□ |⑤---|
15
□③□□ |①--②|
□□②□ |--③-|
①③□□ |-④--|
①□□② |⑤--⑥|

□□□④
□□□□
⑤□④□
□⑤□□

⑥□□<
>□□⑥
□□□□
□□□□
16
□□□□ |----|
□□□□ |----|
□□□□ |----|
□□□□ |----|
17
1③□□ |----|
□②③1 |----|
□①②□ |①-②-|
④④①□ |③-④-|
18
□□①② |--①②|
□□□□ |-③④⑤|
□□□□ |⑥⑦⑧⑨|
□□□□ |-⑩⑪⑫|

③□□□
⑤④⑫□
⑦⑥□⑪
⑨⑧⑩□
19
③②⑥① |①-②③|
□⑫⑩⑤ |-④⑤⑥|
⑪⑫④⑨ |⑦⑧⑨⑩|
□⑫⑧⑦ |-⑪⑫-|
20
②①④③ |--①②|
□⑫⑥⑤ |-③④⑤|
⑪□⑧⑦ |⑥⑦⑧⑨|
□⑩□⑨ |-⑩⑪⑫|
21
①⑥②③ |①-②③|
⑤⑩⑬□ |-④⑤⑥|
⑨④⑫□ |⑦⑧⑨⑩|
⑦⑧□⑪ |-⑪⑫⑬|
22
②□□① |①-②-|
④□□③ |③-④-|
⑥□□⑤ |⑤-⑥-|
⑧□□⑦ |⑦-⑧-|
23
□②①□ |①-②-|
□④③□ |③-④-|
□⑥⑤□ |⑤-⑥-|
□⑧⑦□ |⑦-⑧-|
24
②⑧⑦① |①②③④|
⑫⑥⑤⑪ |⑤⑥⑦⑧|
④⑭⑬③ |⑨⑩⑪⑫|
⑩⑯⑮⑨ |⑬⑭⑮⑯|
25
②③□① |①---|
□□④□ |----|
②③□① |②-③-|
□□④□ |④---|
26
□□②② |①---|
⑦⑧⑨⑩ |②--③④⑤|
③④⑤⑥ |⑥--⑦⑧⑨|
①①□□ |⑩--⑪⑫⑬|

⑪⑫⑬□
□□□□
□□□□
□□□□
27
□□□① |①-----②---③-|
□⑩⑩□ |--④---⑤-----|
③④⑧⑦ |⑥-⑦-⑧-|
②⑤⑨⑥ |⑨-⑩-|
28
□□②② |--①-|
⑦⑧⑨⑩ |②--③④⑤|
③④⑤⑥ |⑥--⑦⑧⑨|
①①⑪⑪ |⑩-⑪-|
29
□□□□ |--①-②-|
□□□□ |③-④---|
②③□□ |⑤⑥⑦⑧|
①④□□ |⑨⑩⑪⑫|

⑥⑩⑨⑤
□⑧□⑪
□□⑦□
⑫□□□
30
⑤⑥□⑦ |①---|
□⑧□⑦ |②③-④|
②③⑨④ |-⑤⑥-|
□□①④ |⑦-⑧⑨|
31
⑥⑦②⑧ |①-②-|
□⑨②⑧ |③④-⑤|
③④⑩⑤ |-⑥⑦-|
□①□⑤ |⑧-⑨⑩|
32
⑦⑧⑨□ |①---|
□⑩⑥⑤ |②③-④|
④□⑪□ |-⑤⑥⑦|
④①③② |⑧⑨⑩⑪|
33
□□□⑦ |①-②-|
④□⑦⑥ |③-④-|
③②⑥⑤ |⑤--⑥|
□①⑤□ |--⑦-|
34
□③□□ |①--②|
③②□□ |--③-|
②①□□ |④⑤-⑥|
①□□□ |⑦-⑧⑨|

□□□□
□□□⑥
□⑦⑨⑧
□⑤④□
35
□□□③ |①②-③|
□①⑥⑧ |-④⑤⑥|
②⑦□□ |-⑦⑧-|
④⑤□□ |⑨⑩⑪-|

□□□□
⑨⑩□□
□□⑪□
□□□□
36
①□□□ |①-②③|
⑪⑫⑧□ |-④⑤⑥|
③⑥⑩② |⑦⑧-⑨|
⑨⑦⑤④ |⑩-⑪⑫|
37
③⑪①□ |①②-③|
⑫□⑩② |-④⑤⑥|
⑦⑥⑧□ |⑦-⑧⑨|
□⑨⑤④ |-⑩⑪⑫|
38
□□□① |①-②-③-|
⑨④⑨② |④-⑤-⑥-|
⑧⑤⑧③ |⑦--⑧|
⑦⑥⑦□ |--⑨-|
39
③④⑤② |①-②-|
□①□□ |③④⑤-|
□□□□ |⑥--⑦|
□□□□ |--⑧-|

□□□□
□⑧□⑧
□⑦□⑦
□⑥□⑥
40
①②③④ |①②③④|
□□□□ |⑤⑥-⑦|
□□□□ |⑧--⑨|
⑤⑦□⑥ |--⑩-|

⑩□⑩□
⑨□⑨□
⑧□⑧□
□□□□
41
□②□① |①②③④|
□□□□ |-⑤⑥-|
□□⑤□ |⑦--⑧|
④⑥③□ |--⑨-|

□⑨□⑨
□⑧□⑧
□⑦□⑦
□□□□
42
③□⑦□ |--①②|
③⑥□⑤ |③-④-|
⑤□⑥④ |⑤--⑥|
①⑦②④ |--⑦-|
43
□①⑧□ |--①②|
□⑦②⑥ |③④⑤-|
⑥③⑦□ |⑥--⑦|
⑤⑧④□ |--⑧-|
44
□③□③ |--①-|
①□①□ |②-③-|
□□□□ |④--⑤|
②□②□ |--⑥-|

□□⑤□
⑥④□□
□□④⑥
□⑤□□
45
②②□③ |①-②-|
□④□□ |③④⑤-|
①①⑤□ |⑥--⑦|
□□□□ |--⑧-|

□⑧⑧□
⑦□□□
□□□⑦
□⑥⑥□
46
②⑥⑤③ |①--②|
④③①② |--③-|
②①□④ |④--⑤|
③⑤⑥① |--⑥-|
47
①□□③ |①--②|
③②①② |--③-|
②①②③ |----|
③□□① |----|
48
①②□□ |①-②-|
□□③□ |③---|
①②□□ |④--⑤|
□□③□ |--⑥-|

□⑥□□
⑤□□⑤
⑥□④⑥
④⑤□④
49
①□□① |-①--|
□□①□ |----|
□□□□
□□□□
50
□②⑥④ |①--②|
②①⑤⑥ |③-④-|
⑤⑦①□ |⑤--⑥|
①③⑧⑤ |⑦-⑧-|
51
⑤□□③ |①-②-|
①③④□ |③-④-|
□□①② |⑤-⑥⑦|
③①□□ |⑧⑨⑩⑪|

□⑧⑨□
⑩□□⑪
⑥□□□
□□⑦□
52
④□□② |①--②|
□①②□ |③-④-|
□⑤□⑤ |⑤-⑥⑦|
③①⑤□ |⑧⑨⑩⑪|

□⑥⑨□
□□□⑦
⑧□⑪□
□⑩□□
53
□⑤□④ |①-②-|
③①③⑤ |③-④-|
□□□□ |⑤-⑥⑦|
①□③② |⑧⑨⑩⑪|

⑧□⑨□
□□□□
□⑩⑪⑦
□⑥□□
54
□□□② |①--②|
□□②□ |③-④-|
④□□□ |⑤--⑥|
①□③① |⑦-⑧⑨|

⑤□□□
⑥⑤□□
□⑥⑦⑤
⑧⑨□□
55
④②①□ |①--②|
□□③① |③-④-|
②□□□ |⑤--⑥|
□□□□ |⑦-⑧⑨|

□□⑦⑤
⑥⑤□□
□⑥⑤□
⑧⑨□□
56
□②□□ |①--②|
□④□□ |③-④-|
②□□□ |⑤--⑥|
□□①③ |⑦-⑧⑨|

⑤□□□
⑥□□⑤
□⑥⑤⑦
⑧⑨□□
57
⑥②⑦⑤ |①--②|
□②①③ |③-④-|
⑤⑦□□ |⑤--⑥|
□□⑥④ |--⑦-|
58
□②□④ |①--②|
②①□□ |③-④-|
□□①□ |⑤--⑥|
①③□□ |⑦-⑧-|

□□⑥□
□□⑤⑥
⑤⑦□□
□□⑧⑤
59
②□□③ |①-②-|
①②③□ |③-④-|
□□□④ |--⑤⑥|
①□□④ |⑦⑧⑨-|

□□⑤□
⑧□□⑦
□⑥⑨□
□□□□
60
④□□② |①--②|
□①②□ |③-④-|
□⑤□⑤ |⑤-⑥⑦|
③①⑤□ |⑧⑨⑩⑪|

□⑥⑨□
□□□⑦
⑧□⑪□
□⑩□□
61
②□□③ |①-②-|
①②③□ |③-④-|
□□□④ |--⑤⑥|
①□□④ |⑦⑧⑨-|

□□⑤□
⑧□□⑦
□⑥⑨□
□□□□
62
②④②□ |①---|
□①□□ |----|
□□□② |②---|
①③①□ |③-④-|
63
□□□② |①-②-|
③⑧□□ |③-④⑤|
□⑥⑤④ |⑥---|
③□⑦① |⑦-⑧-|
64
②⑥⑤① |①②③④|
⑩⑯③⑨ |⑤⑥⑦⑧|
④⑫⑪⑬ |⑨⑩⑪⑫|
⑭⑧⑮⑦ |⑬⑭⑮⑯|
65
□⑦⑦① |①---|
□⑥⑥□ |---②③④|
②③④⑤ |⑤--⑥|
□□□□ |--⑦-|
66
□□□□ |①---|
□>□② |----|
□□□□ |②---|
①□□< |----|
67
□□□□ |----|
□□□1 |----|
□□①< |①---|
□□□□ |---②|

□□□□
□□□□
□□2□
2□□□
68
>□□① |①-②-|
①③□□ |③-④-|
②④□□ |⑤-⑥-|
□□□□ |⑦-⑧-|

□□□8
□□⑤⑦
□□⑥⑧
□□□□
69
⑦①②□ |①②③④|
□□⑧□ |⑤⑥⑦⑧|
③□□□ |⑨---|
□⑤⑥④ |⑩---|

□∨□□
□□□□
□⑨□□
□□□□

□□□□
□□□□
□⑩□□
□□□□
70
□□□□ |①--②|
②□□□ |--③-|
②□①① |④---|
□□□□ |----|

□□③□
□□□③
□□∧□
□④④∧
71
□①1□ |----|
①□□1 |----|
□②③④ |①-②③|
□⑥⑤□ |④-⑤⑥|
72
□③□⑤ |①--②|
④④②□ |--③-|
①③⑤□ |④⑤--|
①□□② |⑥---|

∨□□□
□∨□□
⑥□□□
□⑥□□
73
⑤④③② |----|
□⑦⑥□ |---①|
1□□□ |②③④⑤|
⑨1⑧□ |⑥⑦⑧⑨|
74
□□□□ |①--②|
②□□□ |--③-|
②□①① |④-⑤-|
□□□□ |-⑥⑦-|

□⑤③□
□⑦□③
□□∧□
⑥④□∧
75
②⑥5□ |①-②-|
④⑧□5 |-③④-|
①⑤⑦□ |⑤-⑥-|
□③□□ |-⑦⑧-|
76
②③□□ |①--②|
□□②□ |--③-|
①③□③ |-④--|
①□①② |⑤--⑥|

□□□④
④□□□
⑤□④□
□⑤⑤□

⑥□□<
□⑥□□
□□□□
□∧□□

□□⑥□
>□□⑥
□□∧□
□□□□
77
□□□□ |----|
□□□□ |----|
□□□□ |----|
□□□□ |----|
78
□□□□ |----|
□□□□ |----|
□□□□ |----|
□□□□ |----|
79
1□1□ |----|
□1□1 |----|
□□□□ |----|
□□□□ |①---|
80
①②□□ |----|
□□③□ |----|
①②□□ |①-②-|
□□③□ |③---|
81
□⑥①□ |①-②③|
⑥④□① |④⑤⑥-|
□□⑤③ |⑦⑧⑨⑩|
②□□□ |⑪---|

□□⑪□
□□⑨⑪
⑧⑩□□
□□□⑦
82
⑥④□① |①-②③|
②□□□ |④⑤⑥-|
⑥□③① |⑦⑧⑨⑩|
□□□⑤ |⑪---|

□□⑨⑪
□□□⑦
□⑧□⑪
⑩□□□
83
□①⑥□ |①-②③|
①③□⑥ |④⑤⑥-|
□□④□ |⑦⑧⑨⑩|
□⑤□② |⑪---|

□⑪□□
⑪□⑧□
□⑨□□
⑦□⑩□
84
①□⑥□ |①-②③|
□①□⑥ |④⑤⑥-|
③□④□ |⑦-⑧-|
□⑤□② |⑨-⑩-|

□⑧□⑩
⑦□⑨□
□⑧□⑩
⑦□⑨□
85
①□□< |----|
□□□□ |①---|
□□□□ |----|
□□□□ |----|
86
□□□□ |----|
□□□□ |----|
□□□□ |----|
□□□□ |----|
87
1□□□ |----|
□□□□ |①---|
□□□□ |----|
□□□□ |----|
最終更新:2023年05月01日 11:54