アットウィキロゴ
1
口口口口 |ーーーー|
口口口口 |ーーーー|
口口口口 |ーーーー|
口口口口 |ーーーー|
2
⑤口口④ |①ー②ー|
口③口⑧ |③ー④ー|
⑦口②口 |⑤ー⑥ー|
①口口⑥ |⑦ー⑧ー|
3
⑤①口口 |①ー②ー|
口口④⑧ |③ー④ー|
⑦③口口 |⑤ー⑥ー|
口口②⑥ |⑦ー⑧ー|
4
⑤口口④ |①ー②ー|
口③口⑧ |③ー④ー|
⑦口②口 |⑤ー⑥ー|
①口口⑥ |⑦ー⑧ー|
5
⑤①口口 |①ー②ー|
口口④⑧ |③ー④ー|
⑦③口口 |⑤ー⑥ー|
口口②⑥ |⑦ー⑧ー|
6
口④④② |ーー①ー|
①③③口 |ー②ーー|
口②②④ |③ーー④|
③①①口 |ーーーー|
7
①口口< |①ーーー|
口口口② |ーー②ー|
口口口口 |ーーーー|
口口口口 |③ー④ー|

②>口④
口口口口
口口口口
口口③口
8
口口口① |ーーーー|
口①口口 |ーー①ー|
口口口口 |ーーーー|
口②口口 |②ー③ー|

口口口口
③口口<
口口口口
口口口口
9
口口①口 |ーーーー|
口口口① |ーーーー|
口口口口 |①ーーー|
口口口口 |ーーーー|
10
口口⑤口 |①ーーー|
②口①口 |②ー③ー|
口①③口 |④ーーー|
口④口③ |⑤ーーー|
11
①口口< |①ーーー|
口口口② |ーー②ー|
口口口口 |ーーーー|
口口口口 |③ー④ー|

②>口④
口口口口
口口口口
口口③口
12
口口口① |ーーーー|
口①口口 |ーー①ー|
口口口口 |ーーーー|
口②口口 |②ー③ー|

口口口口
③口口<
口口口口
口口口口
13
口①口口 |ーーーー|
口②①口 |ーーーー|
口③②口 |ーー①ー|
口口③口 |②ー③ー|
14
口口②口 |ーーーー|
①口口口 |①ーーー|
口口口口 |②ーーー|
口③口口 |③ーーー|
15
口②口口 |①ーーー|
口口口① |ーー②ー|
①口口口 |ーーーー|
>口口① |③ー④ー|

口口口口
③口口口
口口口口
④口<②
16
口口①口 |ーーーー|
口口②口 |ーー①ー|
口③口口 |ーー②ー|
①口④口 |③ー④ー|
17
口③口口 |①ー②ー|
③口口口 |ーーーー|
①口口① |③ーーー|
>口口② |ーーーー|
18
口口⑤口 |①ーーー|
口①口口 |②ー③ー|
口③①口 |ーーーー|
③④口② |④ー⑤ー|
19
口②⑤口 |①ーーー|
①口口① |②ー③ー|
口口③口 |ーーーー|
口④口口 |④ー⑤ー|
20
口口口口 |ーーーー|
口①②口 |①ー②ー|
口③口口 |ーーーー|
口口口口 |③ー④ー|

口口④口
口口口口
口口口口
口口∧口
21
口口②口 |①ーーー|
口口口口 |ーーーー|
①口口① |ーーーー|
口②口口 |ーー②ー|
22
口口口② |ーーーー|
①口口口 |①ーーー|
口③③② |②ーーー|
①口口口 |③ーーー|
23
④②③口 |ーー①ー|
口③口③ |ー②ーー|
①口口口 |③ーー④|
⑤⑤口口 |ーー⑤ー|
24
⑦③口⑧ |①ー②ー|
口⑤①⑨ |ー③④ー|
②①④口 |⑤ー⑥⑦|
⑨⑨⑥④ |⑧ー⑨ー|
25
口③②④ |ーー①ー|
③口③口 |ー②ーー|
口口口① |③ーー④|
口口⑤⑤ |ーー⑤ー|
26
⑧口③⑦ |①ー②ー|
口①⑤口 |ー③④ー|
⑨④①② |⑤ー⑥⑦|
④⑥⑨⑨ |⑧ー⑨ー|
27
⑫②⑤⑪ |①②③④|
④⑥⑨① |⑤⑥⑦⑧|
口⑩③⑦ |⑨⑩⑪⑫|
⑧⑭⑬口 |⑬⑭⑮⑯|

口口口口
口口口⑮
⑯口口口
口口口口
28
⑫②③⑪ |①②③④|
④⑥⑦⑮ |⑤⑥⑦⑧|
⑯⑩⑤⑨ |⑨⑩⑪⑫|
⑧⑭⑬① |⑬⑭⑮⑯|
29
⑩②①⑨ |①②③④|
⑥④⑤⑬ |⑤⑥⑦⑧|
⑭⑫③⑪ |⑨⑩⑪⑫|
⑧⑯⑮⑦ |⑬⑭⑮⑯|
30
口⑦①⑤ |①ー②ー|
③⑦⑦口 |③ー④ー|
口⑦②⑥ |⑤ー⑥ー|
④口口口 |⑦ーーー|
31
②⑦口口 |①ーーー|
口口口⑥ |②ー③④|
⑤口④口 |ー⑤⑥ー|
③①①⑧ |⑦ー⑧⑨|

口口口口
口口口口
口口口口
口⑨口口
32
⑧口⑦③ |ー①②ー|
②⑥口口 |③ー④⑤|
口④⑤① |ー⑥⑦ー|
口口口⑧ |⑧ーーー|
33
口⑦口② |①ーーー|
⑤口④⑥ |②ー③④|
③⑧口口 |ー⑤⑥ー|
⑧①①口 |⑦ー⑧ー|
34
④口⑤⑥ |①ー②③|
⑩⑨⑧⑦ |④ー⑤⑥|
⑪⑫⑬① |⑦⑧⑨⑩|
口③①② |⑪⑫⑬⑭|

口口口口
口口口口
口口口⑭
口口口口
35
口⑦②口 |①ーーー|
⑤口口⑥ |②ー③④|
⑨口口口 |ー⑤⑥ー|
①③⑧④ |⑦ー⑧⑨|
36
⑧口口③ |ー①②ー|
口②口⑦ |③ー④⑤|
口⑥口① |ー⑥⑦ー|
④口口⑤ |⑧ーーー|
37
⑦口②口 |①ーーー|
口口⑥口 |②ー③④|
⑧⑤④口 |ー⑤⑥ー|
③①①⑧ |⑦ー⑧ー|
38
口③③① |ーー①ー|
②口④⑤ |②ー③ー|
⑨⑧⑦⑥ |ーー④⑤|
口③③口 |⑥⑦⑧⑨|
39
②口④② |①ーーー|
③口口口 |②ーーー|
口口口口 |ーー③ー|
①⑤⑤① |④ー⑤ー|
40
⑦口口② |ーー①ー|
口⑤口⑥ |②ー③④|
①③口口 |ー⑤⑥ー|
口口口④ |⑦ーーー|
41
口⑦口② |①ーーー|
口⑤口⑥ |②ー③④|
⑧口④口 |ー⑤⑥ー|
③①①口 |⑦ー⑧ー⑨ー|

口口口口
口口口口
口口口口
口⑨口口
42
③口④⑤ |①ー②ーーー|
⑨⑧⑦⑥ |③ー④⑤|
⑩⑪⑫② |⑥⑦⑧⑨|
口口①口 |⑩⑪⑫⑬|

口口口口
口口口口
口口口⑬
口口口口
43
⑦口②口 |①ーーー|
口⑤口⑥ |②ー③④|
口口口口 |ー⑤⑥ー|
③①①④ |⑦ー⑧⑨|

口口口口
口口口口
口⑨口口
口口⑧口
44
⑧口口③ |ー①②ー|
②口口⑦ |③ー④⑤|
⑥口⑤① |ー⑥⑦ー|
④口口口 |⑧ーーー|
45
口⑦口② |①ーーー|
口口口口 |②ー③④|
⑤口④⑥ |ー⑤⑥ー|
③①①口 |⑦ー⑧ー|

口口口口
口口口口
口⑧口口
口口⑧口
46
②口③口 |ーー①ー|
⑤④①③ |②ー③ー|
⑥⑦⑧⑨ |ーー④⑤|
③①口① |⑥⑦⑧⑨|
47
口②口口 |①ーーー|
口口口口 |ーー②ー|
口口口口 |ーーーー|
③①口口 |③ーーー|
48
①口口口 |ーー①ー|
②口口口 |ーーーー|
口③口口 |②ーーー|
口口口口 |③ーーー|
49
口口②口 |①ーーー|
口口口口 |ーー②ー|
口口口口 |ーーーー|
口口①③ |③ーーー|
50
口口口① |ーー①ー|
口口口② |ーーーー|
口口③口 |②ーーー|
口口口口 |③ー④ー|

口口口口
④口口<
口口口口
口口口口
51
口口①口 |ーーーー|
口口口① |ーーーー|
口口口口 |①ーーー|
口口口口 |ーーーー|
52
口口口④ |①ーーー|
口口①口 |ーー②ー|
口①②口 |ーー③ー|
口口③② |④ー⑤ー|

口口口口
口口口口
⑤口<口
口口口口
53
口口①口 |ーーーー|
口口口① |ーーーー|
口口口口 |①ーーー|
口口口口 |ーーーー|
54
口V口④ |①ーーー|
口⑤①口 |ーー②ー|
口①②③ |ーー③ー|
口口口② |④ー⑤ー|
55
口口①口 |ーーーー|
口口口① |ーーーー|
口口口口 |①ーーー|
口口口口 |ーーーー|
56
口口口④ |①ーーー|
口口①口 |ーー②ー|
口①②口 |ーー③ー|
口口③② |④ー⑤ー|

口口口口
口口口口
口⑤口口
口∧口口
57
口口口口 |ーーーー|
①①口口 |ーーーー|
①①口口 |ーーーー|
口口口口 |①ーーー|
58
口①②③ |ーー①②|
⑪⑫⑬⑭ |③④⑤⑥|
⑩⑨⑧⑦ |⑦⑧⑨⑩|
口④⑤⑥ |⑪⑫⑬⑭|
59
③⑦②④ |①②③④|
⑪⑬⑭口 |⑤⑥⑦⑧|
口⑨⑧⑫ |⑨⑩⑪⑫|
①⑤⑩⑥ |⑬⑭⑮⑯|

口口⑯口
口口口口
口口口口
⑮口口口
60
①⑦⑭⑥ |①②③④|
⑪⑬⑫② |⑤⑥⑦⑧|
③⑨⑯⑩ |⑨⑩⑪⑫|
⑮⑤⑧④ |⑬⑭⑮⑯|
61
③⑤⑧⑥ |①②ーー|
⑦口口② |③ー④⑤|
①口口⑥ |⑥ーーー|
口⑨④② |⑦ー⑧⑨|
62
②口口口 |①ーーー|
④⑤口① |②ー③ー|
口③⑦⑥ |ーー④⑤|
⑨⑧③① |⑥⑦⑧⑨|
63
③④⑥⑤ |①②③④|
⑪⑫②① |⑤⑥⑦⑧|
⑦⑧⑭⑬ |⑨⑩⑪⑫|
⑮⑯⑩⑨ |⑬⑭⑮⑯|
64
④③⑥⑤ |①②③④|
⑨⑩②① |⑤⑥⑦⑧|
⑧⑦⑭⑬ |⑨⑩⑪⑫|
⑯⑮⑪⑫ |⑬⑭⑮⑯|
65
②②⑥④ |①②ーー|
⑦⑦③① |③ー④⑤|
⑤⑧⑧口 |ー⑥⑦ー|
口口⑨⑨ |⑧ー⑨ー|
66
③⑧⑧口 |①②ーー|
口⑥口⑤ |③ー④⑤|
④口⑦① |ー⑥⑦ー|
②②口口 |⑧ーーー|
67
④⑯⑭① |①②③④|
③⑮②⑬ |⑤⑥⑦⑧|
⑫⑧⑩⑤ |⑨⑩⑪⑫|
⑪⑦⑥⑨ |⑬⑭⑮⑯|
68
⑧⑯⑫① |①②③④|
⑦⑮②⑪ |⑤⑥⑦⑧|
⑭⑥⑩③ |⑨⑩⑪⑫|
⑬⑤④⑨ |⑬⑭⑮⑯|
69
口口口③ |①②ーー|
口口②⑥ |③ー④⑤|
⑦口⑤① |⑥ーーー|
口④②⑥ |⑦ー⑧⑨|

口口口口
⑨口口口
口口口⑧
口口口口
70
口①口⑧ |①ーーー|
⑦③⑥口 |②ー③ー|
⑤①③口 |ーー④⑤|
②口④口 |⑥⑦⑧⑨|

口口口口
口口口口
口⑨口口
口口口口
71
⑧⑫⑪⑮ |①②③④|
⑯⑥⑬⑦ |⑤⑥⑦⑧|
⑩⑭⑤③ |⑨⑩⑪⑫|
④②⑨① |⑬⑭⑮⑯|
72
⑥⑩⑨⑮ |①②③④|
⑯⑫⑪⑤ |⑤⑥⑦⑧|
⑧⑭⑬① |⑨⑩⑪⑫⑬⑭|
④②⑦③ |⑮⑯⑰⑱|

口口口口
口口口口
口口口⑰
口⑱口口
73
④⑧⑦⑪ |①②③④|
⑭⑩⑮③ |⑤⑥⑦⑧|
⑥⑫⑨⑬ |⑨⑩⑪⑫|
②⑯⑤① |⑬⑭⑮⑯|
74
②⑫⑤⑨ |①②③④|
⑯⑧⑮③ |⑤⑥⑦⑧|
⑥⑩⑦⑬ |⑨⑩⑪⑫|
④⑭⑪① |⑬⑭⑮⑯|
75
③口④口 |①ー②ー|
口口口口 |③ー④ー|
⑥口⑦口 |⑤ーーー|
②⑥⑤① |⑥ー⑦ー|
76
⑤①口① |①ーーー|
口口③口 |②ー③ー|
口②口口 |④ー⑤ー|
④口④口 |ーーーー|
77
口④口③ |①ー②ー|
⑦口口⑥ |③ー④ー|
①⑧①⑥ |⑤ー⑥ー|
口⑤⑨② |⑦⑧⑨ー|
78
①⑤①⑥ |①ーーー|
口③口口 |②ー③ー|
口口②口 |④ー⑤ー|
口④口④ |ーー⑥ー|
79
③口④口 |①ー②ー|
口口口口 |③ー④ー|
⑥①⑦① |⑤ーーー|
②⑥⑤口 |⑥ー⑦ー|
80
⑤①口① |①ーーー|
口口③口 |②ー③ー|
口②口口 |④ー⑤ー|
④口④口 |ーー⑥ー|

口口口⑥
口口口口
口口口口
口口口口
81
⑤口口口 |①ーーー|
①④④口 |②ー③ー|
①③口⑥ |④ーーー|
口口口② |⑤ー⑥ー|
82
口④④口 |①ーーー|
③口口口 |②ー③ー|
口口②口 |④ーーー|
⑤①①口 |⑤ー⑥ー|

口口口口
>口口⑥
口口口口
口口口口
83
①⑤⑧口 |①ー②③|
⑦③④口 |④ー⑤ー|
①⑤⑥⑩ |⑥⑦⑧ー|
⑨⑨口② |⑨ー⑩⑪|

口口口口
口口口口
⑪口口口
口口口口
84
②⑦⑧口 |①ー②ー|
⑥②⑤① |③④⑤ー|
口④口口 |⑥ー⑦ー⑧ー|
口⑨①③ |⑨ー⑩ー⑪ー|

口口口口
口口口口
口口口⑪
口口⑩口
85
⑤口口④ |①ー②ー|
口③口⑧ |③ー④ー|
⑦口②口 |⑤ー⑥ー|
①口口⑥ |⑦ー⑧ー|
86
⑤①口口 |①ー②ー|
口口④⑧ |③ー④ー|
⑦③口口 |⑤ー⑥ー|
口口②⑥ |⑦ー⑧ー|
87
⑦⑧口⑥ |①②③ー|
口④⑤⑫ |④⑤⑥ー|
⑩⑪③口 |⑦⑧⑨ー|
①②口⑨ |⑩⑪⑫ー|
88
口口④⑧ |①②③④|
⑦③口口 |⑤⑥⑦⑧|
口口⑥② |ーーーー|
①⑤口口 |ーーーー|
最終更新:2023年05月01日 11:55