アットウィキロゴ
DENPA NEVER DIE
かめりあ feat. ななひら

BASIC

Level: 3
BPM: 162
Notes: 242

1
口口口口 |----|
口口口口 |----|
口口口口 |----|
口口口口 |----|
2
口口口口 |----|
口口口口 |----|
口口口口 |----|
口口口口 |----|
3
口口口口 |①---|
口口口口 |----|
口口①口 |----|
口口口口 |----|
4
口口口口 |①---|
口口口口 |----|
口①口口 |----|
口口口口 |----|
5
口口口口 |①---|
口①①口 |----|
口口口口 |----|
口口口口 |----|
6
口口口口 |①---|
口口口口 |----|
口①①口 |----|
口口口口 |----|
7
口口口口 |①---|
①口口② |----|
①口口② |②---|
口口口口 |----|
8
口①口口 |①---|
口口②口 |②---|
口③口口 |③---|
口口口口 |----|
9
口口口口 |①---|
②口口① |----|
②口口① |②---|
口口口口 |----|
10
口③③口 |①---|
口②②口 |--②-|
口①①口 |----|
口口口口 |③---|
11
口口口口 |①---|
②口口① |----|
②口口① |②---|
口口口口 |----|
12
口④口口 |①---|
口③口口 |②---|
口口②口 |③---|
口口①口 |④---|
13
口口口口 |①---|
①口口② |----|
①口口② |②---|
口口口口 |----|
14
口③③口 |①---|
口②②口 |--②-|
口①①口 |----|
口口口口 |③---|
15
口口口口 |----|
口口口口 |----|
口口口口 |----|
口口口口 |----|
16
口④④口 |①---|
口③③口 |②---|
①口口② |③---|
口口口口 |④---|
17
口口口口 |①---|
口口口口 |②---|
口口口口 |③---|
④③②① |④---|
18
口口口口 |①---|
口口口口 |②---|
④③②① |③---|
口口口口 |④---|
19
口口口口 |①---|
④③②① |②---|
口口口口 |③---|
口口口口 |④---|
20
口口②① |①---|
口③③口 |②---|
口口口口 |③---|
口口口口 |----|
21
①口口① |①---|
③②口口 |----|
口口口口 |②---|
口口口口 |③---|
22
口口口口 |①---|
口口口口 |②---|
④③②① |③---|
口口口口 |④---|
23
口口口口 |①---|
口口口口 |----|
口②②口 |②---|
口①①口 |----|
24
③口口③ |①---|
②口口② |--②-|
①口口① |----|
口口口口 |③---|
25
口口口口 |①---|
口②①口 |②---|
口③④口 |③---|
口口口口 |④---|
26
口口口口 |①---|
口②①口 |②---|
口③④口 |③---|
口口口口 |④---|
27
口口口口 |①---|
口①①口 |----|
口②②口 |②---|
口口口口 |----|
28
口口口口 |①---|
口①①口 |----|
口口口口 |----|
口口口口 |----|
29
口口口口 |①---|
口口口口 |----|
口口①口 |----|
口口口口 |----|
30
口口口口 |①---|
口口口口 |----|
口①口口 |----|
口口口口 |----|
31
口口口口 |①---|
口①①口 |----|
口口口口 |----|
口口口口 |----|
32
口口口口 |----|
口口口口 |----|
口口口口 |----|
口口口口 |----|
33
口口口口 |①---|
①口口② |----|
①口口② |②---|
口口口口 |----|
34
口①口口 |①---|
口口②口 |②---|
口③口口 |③---|
口口口口 |----|
35
口口口口 |①---|
②口口① |----|
②口口① |②---|
口口口口 |----|
36
口③③口 |①---|
口②②口 |--②-|
口①①口 |----|
口口口口 |③---|
37
口口口口 |①---|
②口口① |----|
②口口① |②---|
口口口口 |----|
38
口④口口 |①---|
口③口口 |②---|
口口②口 |③---|
口口①口 |④---|
39
口口口口 |①---|
①口口② |----|
①口口② |②---|
口口口口 |----|
40
口③③口 |①---|
口②②口 |--②-|
口①①口 |----|
口口口口 |③---|
41
口口口口 |①---|
口口口口 |----|
口口①口 |----|
口口口口 |----|
42
口口口口 |①---|
口口口口 |----|
口①口口 |----|
口口口口 |----|
43
口口口口 |①---|
口口①口 |----|
口口口口 |----|
口口口口 |----|
44
③口口③ |----|
②口口② |①---|
①口口① |②---|
口口口口 |③---|
45
口口口口 |①---|
口②②口 |----|
口口口口 |②---|
口①①口 |----|
46
口口口口 |①---|
口口口口 |----|
口口口口 |----|
口①①口 |----|
47
口口口口 |①---|
①②③④ |②---|
口口口口 |③---|
口口口口 |④---|
48
口④口口 |①---|
口③口口 |②---|
口②口口 |③---|
口①口口 |④---|
49
②口口② |①---|
口口口口 |----|
①口口① |②---|
口口口口 |----|
50
口口口口 |①---|
口口口口 |----|
①口口① |----|
口口口口 |----|
51
口②①口 |①---|
口口口口 |②---|
口④③口 |③---|
口口口口 |④---|
52
③口口③ |----|
②口口② |①---|
①口口① |②---|
口口口口 |③---|
53
口口口口 |①---|
②口口② |----|
口口口口 |②---|
口①①口 |----|
54
口口口口 |①---|
口口口口 |----|
口口口口 |----|
口①①口 |----|
55
口口口口 |①---|
口③②口 |②---|
④口口① |③---|
口口口口 |④---|
56
口口④口 |①---|
口口③口 |②---|
口口②口 |③---|
口口①口 |④---|
57
口口口口 |①---|
①口口① |----|
口口口口 |②---|
②口口② |----|
58
口口口口 |①---|
①口口① |----|
口口口口 |----|
口口口口 |----|
59
口口④口 |①---|
口③口口 |②---|
口口②口 |③---|
口①口口 |④---|
60
口口口口 |----|
口口口口 |----|
口口口口 |----|
口口口口 |----|
61
口口口口 |----|
口口口口 |----|
口口口口 |----|
口口口口 |----|
62
口口口口 |----|
口口口口 |----|
口口口口 |----|
口口口口 |----|
63
③②①口 |①---|
口口口口 |②---|
口④④口 |③---|
口口口口 |④---|
64
口口口口 |----|
口口口口 |----|
口口口口 |----|
口口口口 |----|
65
口③③口 |①---|
口②②口 |--②-|
口①①口 |----|
口口口口 |③---|
66
口口口口 |①---|
口口口口 |②---|
④③②① |③---|
口口口口 |④---|
67
②口口② |①---|
口①①口 |----|
口口口口 |②---|
口口口口 |----|
68
口口口口 |①---|
口口口口 |②---|
口口口口 |③---|
④③②① |④---|
69
口②②口 |①---|
口口口口 |----|
口①①口 |②---|
口口口口 |----|
70
口口口口 |①---|
①②③④ |②---|
口口口口 |③---|
口口口口 |④---|
71
口口口口 |①---|
口口口口 |②---|
口②①口 |③---|
③口口③ |----|
72
口口口口 |①---|
口④③口 |②---|
口口口口 |③---|
口②①口 |④---|
73
③口口③ |①---|
②口口② |--②-|
①口口① |----|
口口口口 |③---|

accuracy: 100%
最終更新:2023年07月27日 05:04