アットウィキロゴ
DENPA NEVER DIE
かめりあ feat. ななひら

ADVANCED

Level: 6
BPM: 162
Notes: 472

1
口口口口 |----|
口口口口 |----|
口口口口 |----|
口口口口 |----|
2
口口口口 |----|
口口口口 |----|
口口口口 |----|
口口口口 |----|
3
口口①口 |①---|
口②口口 |--②-|
口口③口 |----|
口口口口 |③---|
4
口①口口 |①---|
口口②口 |--②-|
口③口口 |----|
口口口口 |③---|
5
口口③口 |①---|
口②口口 |--②-|
口口①口 |----|
口口口口 |③---|
6
②口口② |①---|
口口口口 |--②-|
①口口① |----|
口口口口 |----|
7
口口口口 |①-②-|
口③②① |③---|
④⑤⑥口 |④-⑤-|
口口口口 |⑥---|
8
①口⑥⑥ |①-②-|
口口口② |③-④-|
③口口口 |⑤---|
⑤⑤口④ |⑥---|
9
口口口口 |①-②-|
口③②① |③---|
④⑤⑥口 |④-⑤-|
口口口口 |⑥---|
10
③口口口 |①-②-|
①口口② |--③-|
③口口口
①口口②

口⑤口④
⑤口⑤口
口⑤口④ |④---|
口口口口 |⑤---|
11
④口口⑤ |①-②-|
口口口口 |③---|
④口口⑤ |④---|
口③②① |⑤---|
12
口①⑥⑥ |①-②-|
口口②口 |③-④-|
口③口口 |⑤---|
⑤⑤④口 |⑥---|
13
口①口口 |①-②-|
口②④口 |③---|
口③⑤口 |④-⑤-|
口口⑥口 |⑥---|
14
③口口口 |①-②-|
①口口② |--③-|
③口口口
①口口②

口⑤口④
⑤口⑤口
口⑤口④ |④---|
口口口口 |⑤---|
15
口口口口 |----|
口口口口 |----|
口口口口 |----|
口口口口 |----|
16
口⑤口④ |①---|
⑤口⑤口 |②---|
③⑤②口 |③-④-|
口①②口 |⑤---|
17
口口口口 |①---|
口口⑤口 |②---|
口口口口 |③---|
①②③④ |④-⑤-|
18
口②④口 |①-②-|
⑥口口⑧ |③-④-|
①口口③ |⑤-⑥-|
口⑤⑦口 |⑦-⑧-|
19
口口⑤口 |①---|
口口口口 |②---|
①②③④ |③---|
口口口口 |④-⑤-|
20
⑤口口⑥ |①-②-|
②口口④ |③-④-|
⑤口口⑥ |⑤---|
口①③口 |⑥---|
21
口⑤⑤口 |①-②-|
①②③口 |③---|
口口口口 |④---|
口④④口 |⑤---|
22
⑥口口⑥ |①---|
口④③② |②-③-|
⑤①①⑤ |④-⑤-|
口口口口 |--⑥-|
23
口①④口 |①-②-|
口⑤②口 |③---|
口③⑥口 |④-⑤-|
口口口口 |⑥---|
24
③口口口 |①-②-|
①口口② |--③-|
③口口口
①口口②

口⑤口④
⑤口⑤口
口⑤口④ |④---|
口口口口 |⑤---|
25
口口口口 |①---|
口口口口 |②---|
④④②② |③---|
③③①① |④---|
26
④④②② |①---|
③③①① |②---|
口口口口 |③---|
口口口口 |④---|
27
口口口口 |①---|
口口口口 |----|
②②①① |②---|
②②①① |----|
28
口口口口 |①---|
①①①① |----|
口口口口 |----|
口口口口 |----|
29
口口①口 |①---|
口②口口 |--②-|
口口③口 |----|
口口口口 |③---|
30
口①口口 |①---|
口口②口 |--②-|
口③口口 |----|
口口口口 |③---|
31
口口③口 |①---|
口②口口 |--②-|
口口①口 |----|
口口口口 |③---|
32
口口口口 |----|
口口口口 |----|
口口口口 |----|
口口口口 |----|
33
口口口口 |①-②-|
口③②① |③---|
④⑤⑥口 |④-⑤-|
口口口口 |⑥---|
34
①口⑥⑥ |①-②-|
口口口② |③-④-|
③口口口 |⑤---|
⑤⑤口④ |⑥---|
35
口口口口 |①-②-|
口③②① |③---|
④⑤⑥口 |④-⑤-|
口口口口 |⑥---|
36
③口口口 |①-②-|
①口口② |--③-|
③口口口
①口口②

口⑤口④
⑤口⑤口
口⑤口④ |④---|
口口口口 |⑤---|
37
④口口⑤ |①-②-|
口口口口 |③---|
④口口⑤ |④---|
口③②① |⑤---|
38
口①⑥⑥ |①-②-|
口口②口 |③-④-|
口③口口 |⑤---|
⑤⑤④口 |⑥---|
39
口①口口 |①-②-|
口②④口 |③---|
口③⑤口 |④-⑤-|
口口⑥口 |⑥---|
40
③口口口 |①-②-|
①口口② |--③-|
③口口口
①口口②

口⑤口④
⑤口⑤口
口⑤口④ |④---|
口口口口 |⑤---|
41
口口①口 |①---|
口②口口 |--②-|
口口③口 |----|
口口口口 |③---|
42
口①口口 |①---|
口口②口 |--②-|
口③口口 |----|
口口口口 |③---|
43
口口③口 |①---|
口②口口 |--②-|
口口①口 |----|
口口口口 |③---|
44
③口口③ |----|
②口口② |①---|
①口口① |②---|
口口口口 |③---|
45
口②②口 |①---|
②①①② |----|
③①①③ |②---|
口③③口 |--③-|
46
②口口① |--①-|
口口口口 |--②-|
口口口口 |----|
口口口口 |----|
47
⑤口口④ |①---|
口③③口 |②---|
口②②口 |③---|
口①①口 |④-⑤-|
48
口口口口 |①---|
⑥③②① |②---|
⑤③②① |③-④-|
④口口口 |⑤-⑥-|
49
①②②① |①---|
③口口③ |----|
②口口② |②---|
口③③口 |--③-|
50
①口口② |--①-|
口口口口 |--②-|
口口口口 |----|
口口口口 |----|
51
④②①⑤ |①---|
口④⑤口 |②---|
口②①口 |③---|
③口口③ |④-⑤-|
52
③口口③ |----|
②口口② |①---|
①口口① |②---|
口口口口 |③---|
53
口②②口 |①---|
②①①② |----|
③①①③ |②---|
口③③口 |--③-|
54
②口口① |--①-|
口口口口 |--②-|
口口口口 |----|
口口口口 |----|
55
⑤口口④ |①---|
口③③口 |②---|
口②②口 |③---|
口①①口 |④-⑤-|
56
口口口口 |①---|
⑥③②① |②---|
⑤③②① |③-④-|
④口口口 |⑤-⑥-|
57
①②③① |①---|
③口口② |----|
②口口③ |②---|
口③②口 |--③-|
58
①口口② |--①-|
口口口口 |--②-|
口口口口 |----|
口口口口 |----|
59
⑥口口⑤ |①---|
口④③② |②-③-|
⑥①①⑤ |④---|
口①①口 |⑤-⑥-|
60
口口口口 |----|
口口口口 |----|
口口口口 |----|
口口口口 |----|
61
口口口口 |----|
口口口口 |----|
口口口口 |----|
口口口口 |----|
62
口④⑧口 |①-②-|
口③⑦口 |③-④-|
口②⑥口 |⑤-⑥-|
口①⑤口 |⑦-⑧-|
63
④口口④ |①---|
①口口口 |②---|
④②口④ |③---|
①②③口 |④---|
64
口口口口 |----|
口口口口 |----|
口口口口 |----|
口口口口 |----|
65
③口口口 |①-②-|
①口口② |--③-|
③口口口
①口口②

口⑤口④
⑤口⑤口
口⑤口④ |④---|
口口口口 |⑤---|
66
口口口口 |①-②-|
口⑥⑤④ |③---|
口口口口 |④-⑤-|
①②③口 |⑥---|
67
②③④口 |①---|
⑤口口⑤ |②-③-|
②③④口 |④---|
①⑤⑤① |⑤---|
68
①口口② |①---|
口①②口 |②---|
③④⑤⑥ |③-④-|
口口口口 |⑤-⑥-|
69
⑤口口⑤ |①-②-|
④③②① |③-④-|
口口口口 |----|
口口口口 |⑤---|
70
口口④口 |①-②-|
口③⑤口 |③---|
口②⑥口 |④-⑤-|
口①口口 |⑥---|
71
④口口④ |①--②|
③口口③ |--③-|
②⑤⑤② |-④--|
①口口① |⑤---|
72
口③⑥口 |①-②-|
口⑤②口 |③---|
口口口口 |④-⑤-|
口①④口 |⑥---|
73
③口口口 |①-②-|
①口口② |--③-|
③口口口
①口口②

口⑤口④
⑤口⑤口
口⑤口④ |④---|
口口口口 |⑤---|

accuracy: 100%
最終更新:2023年07月27日 05:17