アットウィキロゴ
DENPA NEVER DIE
かめりあ feat. ななひら

EXTREME

Level: 9.8
BPM: 162
Notes: 798

1
口口口口 |----|
口口口口 |----|
口口口口 |----|
口口口口 |----|
2
口口口口 |----|
口口口口 |----|
口口口口 |----|
口口口口 |----|
3
口口⑤⑤ |①---|
⑥⑦④口 |--②③|
②③⑧口 |④-⑤-|
口①①口 |⑥⑦⑧-|
4
口口⑥口 |----|
口⑤③④ |--①②|
①②口口 |③④-⑤|
口⑦⑦口 |⑥-⑦-|
5
口口④④ |----|
⑤⑥③口 |--①②|
①②⑦口 |③-④-|
口口口口 |⑤⑥⑦-|
6
口⑥③口 |①---|
口④口⑦ |--②-|
②⑥⑤② |③④⑤-|
口①①⑦ |⑥-⑦-|
7
③口⑦⑤ |①②-③|
④口②口 |--④-|
③⑥口⑤ |⑤-⑥⑦|
④①口口 |----|
8
口口口口 |①-②-|
③口口① |③-④-|
口④②口
口③①口

口⑥口口
口⑥口口
⑥口⑦⑦ |⑤---|
⑤口⑦⑤ |⑥-⑦-|
9
③⑥⑤③ |①②-③|
③⑤②③ |--④-|
⑥⑤⑥口 |⑤---|
④①口④ |⑥---|
10
②口口口 |①-②-|
③口口① |--③-|
口口口口
②③①口

口口⑤④
口⑤⑤⑤
口⑦⑤口 |④---|
⑥口⑤④ |⑤-⑥⑦|
11
①⑤口④ |①-②③|
③口口口 |④-⑤-|
口口口②
口口口口

⑦口⑦口
口⑦口口
口口⑥口 |⑥---|
口⑥口⑥ |⑦---|
12
口口口④ |①-②-|
①口②口 |③-④-|
④③口①
②口口③

口⑥⑥口
⑥口口⑥
口口口口 |⑤---|
口⑤⑤口 |⑥---|
13
④⑨⑨④ |①②③④|
⑧③⑤口 |--⑤⑥|
④⑥②④ |⑦-⑧⑨|
①口口⑦ |----|
14
②口口口 |①-②-|
③口口① |--③-|
②③①口
②③①口

口口⑤④
口⑤⑤⑤
口口⑤④ |④---|
口口⑤④ |⑤---|
15
口口口口 |----|
口口口口 |----|
口口口口 |----|
口口口口 |----|
16
①口②② |①---|
①口口② |②---|
①口②口
①口②②

口⑤口口
⑤④⑤口
口⑤口③ |③-④-|
口⑤口口 |⑤---|
17
⑥口②口 |①---|
③口口② |②---|
⑤口口④ |③---|
①口④口 |④-⑤⑥|
18
口③②① |-①②③|
④⑤⑥口 |-④⑤⑥|
口⑨⑧⑦ |-⑦⑧⑨|
⑩⑪⑫口 |-⑩⑪⑫|
19
口②口口 |①---|
②口口口 |②---|
口口口口
口口口①

口口口③
口口口⑥
④口口口 |③---|
口④口⑤ |④-⑤⑥|
20
①②③⑧ |-①②③|
⑦口⑦口 |-④⑤⑥|
⑦⑥⑤④ |⑦---|
⑦口⑦口 |⑧---|
21
口③口口 |①-②-|
③②口② |③---|
⑤口⑤口 |④---|
④①④① |⑤---|
22
口④③② |①②③④|
⑥⑦⑧口 |⑤⑥⑦⑧|
口口口口
口①⑤口

⑪口⑪口
口口口口
口⑩口⑩ |⑨-⑩-|
⑨口口口 |--⑪-|
23
口⑦口⑦ |①--②③④|
⑤④③② |⑤---|
⑥口⑥口 |⑥---|
口①①口 |⑦---|
24
②口口口 |①-②-|
③口口① |--③-|
口口口口
②③①口

口口⑤④
口⑤⑤⑤
口口⑤口 |④---|
口口⑤④ |⑤---|
25
①①④④ |①---|
口口口口 |②---|
口口口口 |③---|
②②③③ |④---|
26
①口口④ |①---|
口①④口 |②---|
口②③口 |③---|
②口口③ |④---|
27
①口口② |①---|
口①②口 |----|
口①②口 |②---|
①口口② |----|
28
口①①口 |①---|
口口口口 |----|
口口口口 |----|
口①①口 |----|
29
口口⑤⑤ |①---|
⑥⑦④口 |--②③|
②③⑧口 |④-⑤-|
口①①口 |⑥⑦⑧-|
30
口口⑥口 |----|
口⑤③④ |--①②|
①②口口 |③④-⑤|
口⑦⑦口 |⑥-⑦-|
31
口口④④ |----|
⑤⑥③口 |--①②|
①②⑦口 |③-④-|
口口口口 |⑤⑥⑦-|
32
口口口口 |----|
口口口① |----|
口口口口 |----|
口口口① |--①-|
33
③口⑦⑤ |①②-③|
④口②口 |--④-|
③⑥口⑤ |⑤-⑥⑦|
④①口口 |----|
34
口口口口 |①-②-|
③口口① |③-④-|
口④②口
口③①口

口⑥口口
口⑥口口
⑥口⑦⑦ |⑤---|
⑤口⑦⑤ |⑥-⑦-|
35
③⑥⑤③ |①②-③|
③⑤②③ |--④-|
⑥⑤⑥口 |⑤---|
④①口④ |⑥---|
36
②口口口 |①-②-|
③口口① |--③-|
口口口口
②③①口

口口⑤④
口⑤⑤⑤
口口⑤口 |④---|
口口⑤④ |⑤---|
37
①⑤口④ |①-②③|
③口口口 |④-⑤-|
①口口②
口口口口

⑦口⑦口
口⑦口口
口口⑥口 |⑥---|
口⑥口⑥ |⑦---|
38
口口口④ |①-②-|
①口②口 |③-④-|
④③口①
②口口③

口⑥⑥口
⑥口口⑥
口口口口 |⑤---|
口⑤⑤口 |⑥---|
39
④⑨⑨④ |①②③④|
⑧③⑤口 |--⑤⑥|
④⑥②④ |⑦-⑧⑨|
①口口⑦ |----|
40
②口口口 |①-②-|
③口口① |--③-|
②③①口
②③①口

口口⑤④
口⑤⑤⑤
口口⑤④ |④---|
口口⑤④ |⑤---|
41
①①⑤⑤ |①---|
⑥⑦④口 |--②③|
②③⑧口 |④-⑤-|
口口口口 |⑥⑦⑧-|
42
口口⑥口 |----|
口⑤③④ |--①②|
①②口口 |③④-⑤|
口⑦⑦口 |⑥-⑦-|
43
口口④④ |----|
⑤⑥③口 |--①②|
①②⑦口 |③-④-|
口口口口 |⑤⑥⑦-|
44
③①②③ |----|
②口口① |①---|
①③③② |②---|
口②①口 |③---|
45
口口口口 |①---|
口口口口 |②---|
口口口口
①口②①

口⑤③口
⑤③⑤口
口③③口 |③---|
④③口口 |④-⑤-|
46
②⑩⑪③ |①-②-|
口⑧⑨口 |--③-|
②⑥⑦③ |④⑤⑥⑦|
口④⑤① |⑧⑨⑩⑪|
47
口口口口 |①---|
①口口② |②---|
口口口口
①口口②

③④⑤口
④口口口
口③口⑤ |③---|
口口口口 |④-⑤-|
48
⑤⑤⑤④ |①---|
③③③⑤ |②---|
②②②⑥ |③-④-|
①①①口 |⑤-⑥-|
49
口口口口 |①---|
口口口口 |②---|
②口口口
①①①①

③口③口
③⑤③⑤
口③口口 |③---|
口口⑤④ |④-⑤-|
50
口②③⑥ |①-②-|
口⑤⑤口 |--③-|
②④④③ |④---|
①口口口 |⑤-⑥-|
51
②⑤口⑤ |①---|
②③⑤③ |②---|
①③口③ |③---|
④①③口 |④-⑤-|
52
①③①③ |----|
③②③② |①---|
口①口① |②---|
②口②口 |③---|
53
口口口口 |①-②③|
口④口口 |④---|
①②①③
口①口①

⑤⑥⑤⑤
⑤口⑤⑤
口口口口 |⑤---|
⑦口⑦⑦ |⑥-⑦-|
54
②口②② |--①-|
口①口口 |--②-|
①①①口
口①口口

口④口口
③口⑥口
口口口⑤ |③④-⑤|
口⑦⑦口 |⑥-⑦-|
55
口口口② |①---|
口①口口 |②---|
口口②口
①口口口

④口③口
口④口⑤
③口口③ |③---|
口口口⑤ |④-⑤-|
56
⑤⑤⑤④ |①---|
③③③⑤ |②---|
②②②⑥ |③-④-|
①①①口 |⑤-⑥-|
57
口②口口 |①---|
口②②口 |②---|
口②口口
①①①①

口口③口
口口口口
③口③口 |----|
口③口口 |--③-|
58
①口口② |--①-|
口③④口 |--②-|
口口口口 |③-④-|
①口口② |----|
59
口②口③ |①---|
口口口口 |②-③-|
口②口③
口①①口

④口⑩口
⑤⑩⑧⑩
⑥口⑩口 |④-⑤-⑥-⑦--⑧--|
⑦⑨口口 |⑨-⑩-|
60
口口口口 |----|
口口口口 |----|
口口口口 |----|
口口口口 |----|
61
口口口口 |----|
口口口口 |----|
口口口口 |----|
口口口口 |----|
62
⑮⑦⑧⑯ |①②③④|
⑬⑤⑥⑭ |⑤⑥⑦⑧|
⑪③④⑫ |⑨⑩⑪⑫|
⑨①②⑩ |⑬⑭⑮⑯|
63
口④④口 |①---|
④①口④ |②---|
口①②口 |③---|
口①②③ |④---|
64
口口口口 |----|
口口口口 |----|
口口口口 |----|
口口口口 |----|
65
②口口口 |①-②-|
③口口① |--③-|
口口口口
②③①口

口口⑤④
口⑤口⑤
口口⑤口 |④---|
口口⑤④ |⑤---|
66
⑦⑫⑪⑩ |①-②-③-④⑤|
④⑨③⑭ |⑥-⑦⑧|
⑤②口① |⑨⑩⑪⑫|
⑥口⑬⑧ |⑬⑭--|
67
②⑤④⑤ |①-②-|
⑤⑥⑤⑥ |③-④-|
①②③④ |⑤---|
⑥①⑥③ |⑥---|
68
②口②④ |①---|
口口口⑤ |②---③-④⑤|
口③口口
口①口①

口口口口
⑩⑩⑧口
⑦口口⑥ |⑥⑦⑧-|
⑨⑨口口 |⑨-⑩-|
69
①②③口 |①-②-|
口口④口 |③-④-|
④③②口
口口口①

口口口口
口口口⑤
口口口⑥ |---⑤---⑥---⑦|
口⑨⑧⑦ |---⑧---⑨----|
70
①②③④ |①②③④⑤-⑥-|
⑦⑦口⑧ |⑦-⑧⑨|
⑨⑤⑥口
口口口口

口⑬口口
口口口口
口口口⑫ |⑩-⑪-|
⑪⑪⑭⑩ |⑫⑬⑭-|
71
⑧⑧②② |①②-③|
④④⑥⑥ |④-⑤⑥|
⑨①③⑨ |-⑦⑧-|
⑤口口⑦ |⑨---|
72
口口③① |①-②-③④⑤⑥|
口⑨④口 |-⑦⑧⑨|
口口⑤口
⑦②⑥⑧

口⑬⑭口
口口口口
⑪⑫口⑩ |⑩-⑪⑫|
口口口口 |-⑬⑭-|
73
②口口口 |①-②-|
③口口① |--③-|
口口口口
②③①口

口口⑤④
口⑤⑤⑤
口口⑤口 |④---|
口口⑤④ |⑤---|

accuracy: 100%
最終更新:2023年07月27日 05:54