アットウィキロゴ
Gray Heaven
かめりあ

BASIC

Level: 5
BPM: 220
Notes: 340

1
口口口口 |----|
口口口口 |----|
口口口口 |----|
口口口口 |----|
2
口口口口 |----|
口口口口 |----|
口口口口 |----|
口口口口 |----|
3
口口口口 |----|
口口口口 |----|
口口口口 |----|
口口口口 |----|
4
口口口口 |----|
口口口口 |----|
口口口口 |----|
口口口口 |----|
5
口口口口 |----|
口口口口 |----|
口口口口 |----|
口口口口 |----|
6
口口口口 |----|
口口口口 |----|
口口口口 |----|
口口口口 |----|
7
口口口口 |----|
口口口口 |----|
口口口口 |----|
口口口口 |----|
8
口口口口 |----|
口口口口 |----|
口口口口 |----|
口口口口 |----|
9
口口口口 |----|
口口口口 |----|
口口口口 |----|
口口口口 |----|
10
口口口口 |----|
口口口口 |----|
口口口口 |----|
口口口口 |----|
11
口口口口 |----|
口口口口 |----|
口口口口 |----|
口口口口 |----|
12
口口口口 |①---|
口②①口 |②---|
口④③口 |③---|
口口口口 |④---|
13
口口口口 |①---|
口②①口 |②---|
口④③口 |③---|
口口口口 |④---|
14
口口口口 |①---|
口②①口 |②---|
口④③口 |③---|
口口口口 |④---|
15
口口口口 |①---|
口②①口 |②---|
口④③口 |③---|
口口口口 |④---|
16
口口口口 |①---|
口②①口 |②---|
口④③口 |③---|
口口口口 |④---|
17
口口口口 |①---|
口②①口 |②---|
口④③口 |③---|
口口口口 |④---|
18
口口口口 |①---|
口②①口 |②---|
口④③口 |③---|
口口口口 |④---|
19
口口口口 |①---|
口②①口 |②---|
口口③口 |③---|
口口口口 |----|
20
②口口② |①---|
口口口口 |--②-|
①口口① |----|
口口口口 |----|
21
口口口口 |①---|
口①②③ |②---|
口口口口 |③---|
口口口口 |----|
22
②口口② |①---|
口口口口 |--②-|
①口口① |----|
口口口口 |----|
23
口口口口 |①---|
③②①口 |②---|
口口口口 |③---|
口口口口 |----|
24
口口口口 |①---|
③口口③ |--②-|
②口口② |----|
①口口① |③---|
25
口口口口 |----|
②口口② |--①-|
①口口① |----|
口口口口 |②---|
26
口口口口 |①---|
口③③口 |--②-|
口②②口 |----|
口①①口 |③---|
27
口口口口 |----|
口口口口 |----|
口口口口 |----|
口口口口 |----|
28
②口口② |①---|
口口口口 |--②-|
①口口① |----|
口口口口 |----|
29
口口口口 |①---|
口①②③ |②---|
口口口口 |③---|
口口口口 |----|
30
②口口② |①---|
口口口口 |--②-|
①口口① |----|
口口口口 |----|
31
口口口口 |①---|
③②①口 |②---|
口口口口 |③---|
口口口口 |----|
32
口口口口 |①---|
③口口③ |--②-|
②口口② |----|
①口口① |③---|
33
口口口口 |----|
②口口② |--①-|
①口口① |----|
口口口口 |②---|
34
口口口口 |①---|
口③③口 |--②-|
口②②口 |----|
口①①口 |③---|
35
口口口口 |----|
口口口口 |----|
口口口口 |----|
口口口口 |----|
36
口口口口 |①---|
口②②口 |--②-|
口①①口 |----|
口口口口 |----|
37
口口口口 |①---|
口②②口 |--②-|
口①①口 |----|
口口口口 |----|
38
口口口口 |①---|
口②②口 |--②-|
口①①口 |----|
口口口口 |----|
39
①口口① |----|
口口口口 |----|
口口口口 |①---|
口口口口 |----|
40
口口口口 |①---|
口口口口 |②---|
口口口口 |③---|
①②③④ |④---|
41
口口口口 |①---|
口口口口 |②---|
①②③④ |③---|
口口口口 |④---|
42
口口口口 |①---|
①②③④ |②---|
口口口口 |③---|
口口口口 |④---|
43
①②③口 |①---|
口口口口 |②---|
口口口口 |③---|
口口口口 |----|
44
口口口口 |①---|
口口口口 |----|
口①①口 |----|
口口口口 |----|
45
口口口口 |----|
口口口口 |----|
口口口口 |----|
口口口口 |----|
46
口口口口 |----|
口口口口 |----|
口口口口 |----|
口口口口 |----|
47
口口口口 |----|
口①②口 |----|
口①②口 |①---|
口口口口 |②---|
48
①口口口 |①---|
②口口口 |--②-|
③口口口 |----|
口口口口 |③---|
49
口口①口 |①---|
口口②口 |--②-|
口口③口 |----|
口口口口 |③---|
50
口①口口 |①---|
口②口口 |--②-|
口③口口 |----|
口口口口 |③---|
51
口③②① |①---|
口口口口 |②---|
口口口口 |③---|
口口口口 |----|
52
口口口口 |①---|
口②口④ |②---|
①口③口 |③---|
口口口口 |④---|
53
口口口口 |①---|
④口②口 |②---|
口③口① |③---|
口口口口 |④---|
54
④③②① |①---|
口口口口 |②---|
口口口口 |③---|
口口口口 |④---|
55
口口口口 |①---|
口口口口 |②---|
口口口口 |③---|
①②③④ |④---|
56
口口口口 |①---|
④口②口 |②---|
口③口① |③---|
口口口口 |④---|
57
口口口口 |①---|
口②口④ |②---|
①口③口 |③---|
口口口口 |④---|
58
①②③④ |①---|
口口口口 |②---|
口口口口 |③---|
口口口口 |④---|
59
口口口口 |①---|
口口口口 |②---|
口口口口 |③---|
口③②① |----|
60
口口口口 |①---|
口③②口 |②---|
④口口① |③---|
口口口口 |④---|
61
口口口口 |①---|
①口口④ |②---|
口②③口 |③---|
口口口口 |④---|
62
口口口口 |①---|
口口口口 |②---|
口口口口 |③---|
①②③④ |④---|
63
④③②① |①---|
口口口口 |②---|
口口口口 |③---|
口口口口 |④---|
64
口口口口 |①---|
口②③口 |②---|
①口口④ |③---|
口口口口 |④---|
65
口口口口 |①---|
④口口① |②---|
口③②口 |③---|
口口口口 |④---|
66
口口口口 |①--②|
⑥口口③ |--③-|
⑤口口② |④--⑤|
④口口① |--⑥-|
67
口口口口 |①--②|
口口③口 |--③-|
口口②口 |----|
口口①口 |----|
68
口口口口 |----|
口口口口 |----|
口口口口 |----|
口口口口 |----|
69
口口口口 |----|
口口口口 |----|
口口口口 |----|
口口口口 |----|
70
①口口④ |①--②|
②口口⑤ |--③-|
③口口⑥ |④--⑤|
口口口口 |--⑥-|
71
口①④口 |①--②|
口②口口 |--③-|
口③口口 |④---|
口口口口 |----|
72
口口口口 |----|
口口口口 |----|
口口口口 |----|
口口口口 |----|
73
口口口口 |----|
口口口口 |----|
口口口口 |----|
口口口口 |----|
74
口口口口 |①--②|
⑥口口③ |--③-|
⑤口口② |④--⑤|
④口口① |--⑥-|
75
口口④口 |①--②|
口口③口 |--③-|
口口②口 |-④--|
口口①口 |----|
76
口口④口 |①---|
口③口口 |②---|
口口②口 |③---|
口①口口 |④---|
77
口④口口 |①---|
口口③口 |②---|
口②口口 |③---|
口口①口 |④---|
78
口口口④ |①---|
口口口③ |②---|
口口口② |③---|
口口口① |④---|
79
①口口口 |①---|
②口口口 |②---|
③口口口 |③---|
④口口口 |④---|
80
口口口口 |----|
口口口口 |----|
口口口口 |----|
口口口口 |----|
81
口③③口 |①---|
口②②口 |--②-|
口①①口 |----|
口口口口 |③---|
82
口口口④ |①---|
③口口口 |②---|
口口口② |③---|
①口口口 |④---|
83
④口口口 |①---|
口口口③ |②---|
②口口口 |③---|
口口口① |④---|
84
口口①口 |①---|
口②口口 |②---|
口口③口 |③---|
口④口口 |④---|
85
口①口口 |①---|
口口②口 |②---|
口③口口 |③---|
口口④口 |④---|
86
口口口口 |①---|
③口口③ |--②-|
②口口② |----|
①口口① |③---|
87
口口口口 |----|
②口口② |--①-|
①口口① |----|
口口口口 |②---|
88
口①①口 |①---|
口②②口 |--②-|
口③③口 |----|
口口口口 |③---|
89
③口口③ |--①-|
口口口口 |----|
②口口② |②---|
口①①口 |③---|
90
口口口口 |----|
口口口口 |----|
口口口口 |----|
口口口口 |----|
91
口口口口 |----|
口口口口 |----|
口口口口 |----|
口口口口 |----|
92
口口口口 |①---|
口口口口 |----|
口①①口 |----|
口口口口 |----|
93
口口口口 |①---|
①②③口 |②---|
口口口口 |③---|
口口口口 |----|
94
④口口② |①---|
口口口口 |②---|
口口口口 |③---|
①口口③ |④---|
95
口④②口 |①---|
口口口口 |②---|
口口口口 |③---|
口①③口 |④---|
96
③口口① |----|
口口口口 |①---|
口口口口 |②---|
口口口② |③---|
97
口口口口 |①--②|
口口口口 |--③-|
④③②① |-④--|
口口⑤口 |⑤---|
98
口④②口 |①---|
口口口口 |②---|
口口口口 |③---|
①口口③ |④---|
99
④口口② |①---|
口口口口 |②---|
口口口口 |③---|
口①③口 |④---|
100
口口口口 |----|
口①①口 |①---|
口②②口 |----|
口口口口 |②---|
101
口口口口 |①---|
口口口口 |②---|
口口口口 |③---|
口③②① |----|
102
口口口口 |①---|
①口口① |----|
口口口口 |----|
口口口口 |----|
103
口口口口 |----|
口口口口 |----|
口口口口 |----|
口口口口 |----|
104
口口口口 |----|
口口口口 |----|
口口口口 |----|
口口口口 |----|
105
口口口口 |----|
口口口口 |----|
口口口口 |----|
口口口口 |----|
106
口①①口 |①---|
口②②口 |--②-|
口③③口 |----|
口口口口 |③---|
107
④③②① |①---|
口口口口 |②---|
口口口口 |③---|
口口口口 |④---|
108
口口口口 |----|
口口口口 |----|
口口口口 |----|
口口口口 |----|
109
口口口口 |----|
口口口口 |----|
口口口口 |----|
口口口口 |----|
110
口口口口 |①---|
口口口口 |②---|
口口口口 |③---|
①②③④ |④---|
111
口口口口 |①---|
口⑤⑤口 |②---|
口口口口 |③---|
①②③④ |④-⑤-|

accuracy: 100%
最終更新:2023年07月20日 18:45