アットウィキロゴ
Gray Heaven
かめりあ

ADVANCED

Level: 9.4
BPM: 220
Notes: 654

1
口口口口 |----|
口口口口 |----|
口口口口 |----|
口口口口 |----|
2
口口口口 |----|
口口口口 |----|
口口口口 |----|
口口口口 |----|
3
口口口口 |----|
口口口口 |----|
口口口口 |----|
口口口口 |----|
4
口口口口 |----|
口口口口 |----|
口口口口 |----|
口口口口 |----|
5
口口口口 |----|
口口口口 |----|
口口口口 |----|
口口口口 |----|
6
口口口口 |----|
口口口口 |----|
口口口口 |----|
口口口口 |----|
7
口口口口 |----|
口口口口 |----|
口口口口 |----|
口口口口 |----|
8
口口口口 |----|
口口口口 |----|
口口口口 |----|
口口口口 |----|
9
口口口口 |----|
口口口口 |----|
口口口口 |----|
口口口口 |----|
10
口口口口 |----|
口口口口 |----|
口口口口 |----|
口口口口 |----|
11
口口口口 |----|
口口口口 |----|
口口口口 |----|
口口口口 |----|
12
口口口口 |①---|
口口口口 |②---|
口口口口 |③---|
①②③④ |④---|
13
口口口口 |①---|
口口口口 |②---|
①②③④ |③---|
口口口口 |④---|
14
口口口口 |①---|
①②③④ |②---|
口口口口 |③---|
口口口口 |④---|
15
①②③④ |①---|
口口口口 |②---|
口口口口 |③---|
口口口口 |④---|
16
口口口口 |①---|
口口口口 |②---|
口口口口 |③---|
①②③④ |④---|
17
口口口口 |①---|
口口口口 |②---|
①②③④ |③---|
口口口口 |④---|
18
口口口口 |①---|
①②③④ |②---|
口口口口 |③---|
口口口口 |④---|
19
①②③口 |①---|
口口口口 |②---|
口口口口 |③---|
口口口口 |----|
20
②口口② |①---|
③④口口 |--②-|
口①①口 |----|
口口口口 |③-④-|
21
口③③口 |①-②-|
口口①② |--③-|
口⑥⑤④ |--④-|
口口口口 |⑤-⑥-|
22
②口口② |①---|
③④口口 |--②-|
①口口口 |----|
口口口口 |③-④-|
23
口口口口 |①---|
口口①口 |②-③-|
口④③② |④---|
⑤⑥口口 |⑤-⑥-|
24
口口口口 |①---|
③口口③ |--②-|
②口口② |----|
口口①口 |③---|
25
口①②③ |--①-|
口口口口 |②-③-|
口⑥⑤④ |--④-|
口口口口 |⑤-⑥-|
26
口③③口 |①---|
口②②口 |--②-|
①口口口 |----|
口口口口 |③---|
27
口口口口 |--①-|
口⑥⑤口 |②-③-|
⑦口口④ |④-⑤-|
①②③口 |⑥-⑦-|
28
②口口② |①---|
③④口口 |--②-|
口①①口 |----|
口口口口 |③-④-|
29
口③③口 |①-②-|
口口①② |--③-|
口⑥⑤④ |--④-|
口口口口 |⑤-⑥-|
30
②口口② |①---|
③④口口 |--②-|
①口口口 |----|
口口口口 |③-④-|
31
口口口口 |①---|
口口①口 |②-③-|
口④③② |④---|
⑤⑥口口 |⑤-⑥-|
32
口口口口 |①---|
③口口③ |--②-|
②口口② |----|
口口①口 |③---|
33
口①②③ |--①-|
口口口口 |②-③-|
口⑥⑤④ |--④-|
口口口口 |⑤-⑥-|
34
口③③口 |①---|
口②②口 |--②-|
①口口口 |----|
口口口口 |③---|
35
口口口口 |----|
口口口口 |----|
口口口口 |----|
口口口口 |----|
36
口口口② |①---|
①口②口 |--②-|
口①口② |----|
①口口口 |----|
37
口口②② |①---|
口口②口 |--②-|
口①口口 |----|
①①口口 |----|
38
口②口② |①---|
口口②口 |--②-|
口①口口 |----|
①口①口 |----|
39
口口口口 |①-②-|
口②④口 |--③-|
①口口③ |④---|
口口口口 |----|
40
口口口口 |①-②-|
口口口口 |③-④-|
口⑤⑥⑦ |⑤-⑥-|
①②③④ |⑦---|
41
⑦⑥⑤口 |①-②-|
④③②① |③-④-|
口口口口 |⑤-⑥-|
口口口口 |⑦---|
42
口⑧⑦口 |①-②-|
口⑥⑤口 |③-④-|
口④③口 |⑤-⑥-|
口②①口 |⑦-⑧-|
43
③口口③ |①---|
②口口② |②---|
①③③① |③---|
口口口口 |----|
44
口口口口 |①---|
口①①口 |----|
①口口① |----|
口①①口 |----|
45
口口口口 |----|
口口口口 |----|
口口口口 |----|
口口口口 |----|
46
口口口口 |----|
口口口口 |----|
口口口口 |----|
口口口口 |----|
47
①②①② |----|
口口口口 |----|
口①②口 |①---|
口口口口 |②---|
48
⑪⑫⑬⑭ |①②③④|
①②③④ |⑤-⑥⑦|
⑤口口⑩ |⑧⑨⑩-|
⑨⑧⑦⑥ |⑪⑫⑬⑭|
49
⑪⑫⑬⑭ |①②③④|
①②③④ |⑤-⑥⑦|
⑤口口⑩ |⑧⑨⑩-|
⑨⑧⑦⑥ |⑪⑫⑬⑭|
50
⑪⑫⑬⑭ |①②③④|
①②③④ |⑤-⑥⑦|
⑤口口⑩ |⑧⑨⑩-|
⑨⑧⑦⑥ |⑪⑫⑬⑭|
51
⑨口口口 |①②③④|
①②③④ |⑤⑥⑦-|
⑤⑥⑦⑨ |⑧---|
口⑧⑧口 |⑨---|
52
口①③口 |①---|
①口口③ |②-③-|
口④口口 |④---|
②⑤⑤口 |⑤---|
53
③口④① |①---|
⑤③①口 |②-③-|
口口口⑥ |④---|
口口口② |⑤-⑥-|
54
口口口口 |①-②-|
口口口口 |③-④-|
⑤⑥⑦⑧ |⑤-⑥-|
①②③④ |⑦-⑧-|
55
⑤⑥⑦⑧ |①-②-|
④③②① |③-④-|
口口口口 |⑤-⑥-|
口口口口 |⑦-⑧-|
56
④口口口 |①---|
口②口口 |②-③-|
①口口③ |④---|
⑤①③口 |⑤---|
57
⑤①口④ |①---|
①⑤④口 |②-③-|
口口口口 |④---|
口③口② |⑤---|
58
口口口口 |①-②-|
口口口口 |③-④-|
⑤②⑦④ |⑤-⑥-|
①⑥③⑧ |⑦-⑧-|
59
⑤②口④ |①-②-|
①口③口 |③-④-|
口口口⑥ |⑤---|
口口口口 |--⑥-|
60
口口口口 |①-②-|
⑥口口④ |③---|
③②①口 |④---|
口⑥④⑤ |⑤-⑥-|
61
口口③① |①---|
口④口⑤ |②-③-|
⑥②口③ |④---|
口口口口 |⑤-⑥-|
62
口口口口 |①-②-|
口口口口 |③-④-|
⑧⑦⑥⑤ |⑤-⑥-|
④③②① |⑦-⑧-|
63
⑧⑦⑥⑤ |①-②-|
①②③④ |③-④-|
口口口口 |⑤-⑥-|
口口口口 |⑦-⑧-|
64
口口口⑥ |①---|
口③②口 |②-③-|
⑤口⑥④ |④---|
③口①① |⑤-⑥-|
65
⑥①口⑦ |①---|
②④⑤口 |②-③-|
口⑥⑦口 |④-⑤-|
④口③⑤ |⑥-⑦-|
66
口③⑥口 |①--②|
⑤口口② |--③-|
①口口④ |④--⑤|
口①④口 |--⑥-|
67
③口口口 |①--②|
口口②口 |--③-|
①⑥⑤④ |④-⑤-|
口①口口 |⑥---|
68
口①①口 |①---|
口口口口 |----|
口口口口 |----|
口口口口 |----|
69
口口口口 |----|
口口口口 |----|
口口口口 |----|
口口口口 |----|
70
①⑥①口 |①--②|
⑥口⑧⑦ |--③④|
③④⑤口 |⑤--⑥|
口②口② |--⑦⑧|
71
⑩⑨⑧⑦ |①--②|
口①口口 |--③④|
③④⑤② |⑤-⑥-|
口⑥②口 |⑦⑧⑨⑩|
72
口口口口 |----|
口口口口 |----|
口口口口 |----|
口口口口 |----|
73
口口口口 |----|
口口口口 |----|
口口口口 |----|
口口口口 |----|
74
口①⑥① |①--②|
⑦⑧口⑥ |--③④|
口⑤④③ |⑤--⑥|
②口②口 |--⑦⑧|
75
⑤③⑤③ |①--②|
口口①口 |--③-|
口口口口 |-④--|
④②④② |⑤---|
76
口口⑥口 |①---|
口口②⑥ |②-③-|
③①①口 |④---|
⑤③口④ |⑤-⑥-|
77
口①口② |①---|
①③⑥口 |②-③-|
⑤口口④ |④---|
口⑤④口 |⑤-⑥-|
78
口口口口 |①-②-|
口口口口 |③-④-|
⑧②③⑤ |⑤-⑥-|
①⑦⑥④ |⑦-⑧-|
79
④⑥⑦① |①-②-|
⑤③②⑧ |③-④-|
口口口口 |⑤-⑥-|
口口口口 |⑦-⑧-|
80
口口口口 |①---|
口口口口 |----|
口口口口 |----|
口①①口 |----|
81
⑦口②⑦ |①---|
⑥③口⑥ |②③④-|
⑤口④⑤ |--⑤-|
①口口① |⑥-⑦-|
82
口⑤⑤口 |①-②-|
口口口口 |③---|
口④④口 |④---|
①②③口 |⑤---|
83
⑦口口⑥ |①-②-|
①②③④ |③-④-|
⑦口口⑥ |⑤---|
口⑤⑤口 |⑥-⑦-|
84
口口口口 |①---|
②③④⑤ |②-③-|
口①①口 |④-⑤-|
口⑥⑥口 |⑥---|
85
⑤③②① |①-②-|
口口口口 |③---|
口⑥⑥④ |④-⑤-|
口口口口 |⑥---|
86
口⑪⑪口 |①②③④|
①②③④ |⑤-⑥⑦|
⑤口口⑩ |⑧⑨⑩-|
⑨⑧⑦⑥ |⑪---|
87
口⑪⑪口 |①②③④|
①②③④ |⑤-⑥⑦|
⑤口口⑩ |⑧⑨⑩-|
⑨⑧⑦⑥ |⑪---|
88
口口口④ |①②③-|
①②③口 |④-⑤⑥|
⑤⑥⑦口 |⑦-⑧-|
⑨⑩⑪⑧ |⑨⑩⑪-|
89
②③④⑨ |①-②③|
⑥⑦⑧① |④-⑤-|
口口口⑤ |⑥⑦⑧-|
⑩口口口 |⑨-⑩-|
90
口口口口 |----|
口口口口 |----|
口口口口 |----|
口口口口 |----|
91
口口口口 |----|
口口口口 |----|
口口口口 |----|
口口口口 |----|
92
②口③口 |①---|
口①①口 |----|
口①①口 |②-③-|
口④口⑤ |④-⑤-|
93
⑨口口口 |①②③④|
⑤⑥⑦⑧ |⑤⑥⑦⑧|
①②③④ |⑨---|
口口口口 |----|
94
⑥③⑥③ |①-②-|
口⑤口口 |③---|
口口②口 |④-⑤-|
①口口④ |⑥---|
95
⑥③⑥③ |①-②-|
口口②口 |③---|
口⑤口口 |④-⑤-|
①口口④ |⑥---|
96
④①④① |----|
口口口口 |①---|
口口口口 |②-③-|
口③口② |④---|
97
口⑤⑤口 |①--②|
①②③④ |--③-|
①②③④ |-④--|
口口口口 |⑤---|
98
①口口④ |----|
口③口口 |①---|
①口口④ |②-③-|
口口②口 |④---|
99
③⑤口⑥ |①-②-|
口口口口 |③---|
③口②⑥ |④-⑤-|
口①④口 |⑥---|
100
⑤口口⑩ |-①②③|
①②③④ |④-⑤-|
口⑤⑩口 |-⑥⑦⑧|
⑨⑧⑦⑥ |⑨-⑩-|
101
口③④口 |①-②-|
口⑤⑤口 |③-④-|
①口口② |⑤---|
口口口口 |----|
102
口口口口 |①---|
①口口① |----|
口①①口 |----|
①口口① |----|
103
口口口口 |----|
口口口口 |----|
口口口口 |----|
口口口口 |----|
104
口口口口 |----|
口口口口 |----|
口口口口 |----|
口口口口 |----|
105
口口口口 |----|
口口口口 |----|
口口口口 |----|
口口口口 |----|
106
⑪⑫⑬⑭ |①②③④|
①②③④ |⑤-⑥⑦|
⑤口口⑩ |⑧⑨⑩-|
⑨⑧⑦⑥ |⑪⑫⑬⑭|
107
⑨口口口 |①②③④|
①②③④ |⑤⑥⑦-|
⑤⑥⑦⑨ |⑧---|
口⑧⑧口 |⑨---|
108
口口口口 |----|
口口口口 |----|
口口口口 |----|
口口口口 |----|
109
口口口口 |----|
口口口口 |----|
口口口口 |----|
口口口口 |----|
110
口口口口 |①---|
口口口口 |②---|
口口口口 |③---|
①②③④ |④---|
111
口口口口 |①---|
口⑤⑤口 |②---|
口⑤⑤口 |③---|
①②③④ |④-⑤-|

accuracy: 100%
最終更新:2023年07月20日 19:01