アットウィキロゴ
Gray Heaven
かめりあ

EXTREME

Level: 10.5
BPM: 220
Notes: 889

1
口口口口 |----|
口口口口 |----|
口口口口 |----|
口口口口 |----|
2
口口口口 |----|
口口口口 |----|
口口口口 |----|
口口口口 |----|
3
口口口口 |----|
口口口口 |----|
口口口口 |----|
口口口口 |----|
4
口口口口 |----|
口口口口 |----|
口口口口 |----|
口口口口 |----|
5
口口口口 |----|
口口口口 |----|
口口口口 |----|
口口口口 |----|
6
口口口口 |----|
口口口口 |----|
口口口口 |----|
口口口口 |----|
7
口口口口 |----|
口口口口 |----|
口口口口 |----|
口口口口 |----|
8
口口口口 |----|
口口口口 |----|
口口口口 |----|
口口口口 |----|
9
口口口口 |----|
口口口口 |----|
口口口口 |----|
口口口口 |----|
10
口口口口 |----|
口口口口 |----|
口口口口 |----|
口口口口 |----|
11
口口口口 |----|
口口口口 |----|
口口口口 |----|
口口口口 |----|
12
口口口口 |①---|
口口口口 |②---|
口口口口 |③---|
①②③④ |④---|
13
口口口口 |①---|
口口口口 |②---|
①②③⑤ |③-④-|
口口④⑥ |⑤-⑥-|
14
口口口口 |①---|
①②③④ |②---|
口口口口 |③---|
口口口口 |④---|
15
①②③⑤ |①---|
口口④⑥ |②---|
口口口口 |③-④-|
口口口口 |⑤-⑥-|
16
口口口口 |①---|
口口口口 |②---|
口口口口 |③---|
①②③④ |④---|
17
口口口口 |①---|
口口口口 |②---|
①②③⑤ |③-④-|
口口④⑥ |⑤-⑥-|
18
口口口口 |①---|
①②③⑤ |②---|
口口④口 |③-④-|
口口口口 |⑤---|
19
④口口⑤ |①②③-|
口⑥⑥口 |-④--|
④⑥⑥⑤ |⑤--⑥|
①②③口 |----|
20
③口口口 |①---|
②④口② |--②-|
③口口口 |----|
①口口① |③-④-|
21
口③③② |①-②-|
④口①⑤ |--③-|
口口⑥② |--④-|
口④⑤口 |⑤-⑥-|
22
②口口② |①---|
口③④口 |--②-|
口①口口 |----|
口口口口 |③-④-|
23
④④口口 |①---|
口⑤⑥① |②-③-|
④③②口 |④---|
口口①① |⑤-⑥-|
24
口口⑤⑤ |①---|
③口口① |②-③-|
口④②⑤ |--④-|
③③①① |⑤---|
25
③③口⑥ |--①-|
口②⑤⑦ |②-③-|
③口口⑧ |--④-|
口④①口 |⑤--⑥⑦⑧|
26
③口③口 |①---|
③②口口 |②-③-|
⑤④口口 |--④-|
⑤口⑤① |⑤---|
27
③⑦④① |--①-|
③②③口 |②-③-|
⑦⑥⑤④ |④-⑤-|
口口口口 |⑥-⑦-|
28
口口口③ |①---|
②口④② |--②-|
口口口③ |----|
①口口① |③-④-|
29
②③③口 |①-②-|
⑤①口④ |--③-|
②⑥口口 |--④-|
口⑤④口 |⑤-⑥-|
30
②口口② |①---|
口④③口 |--②-|
口口①口 |----|
口口口口 |③-④-|
31
口口④④ |①---|
①⑥⑤口 |②-③-|
口②③④ |④---|
①①口口 |⑤-⑥-|
32
⑤⑤口口 |①---|
①口口③ |②-③-|
⑤②④口 |--④-|
①①③③ |⑤---|
33
⑥口③③ |--①-|
⑦⑤②口 |②-③-|
⑧口口③ |--④-|
口①④口 |⑤--⑥⑦⑧|
34
⑥③口③ |①---|
口⑥②③ |②-③-|
口口④⑤ |--④-|
①⑤口⑤ |⑤-⑥-|
35
口口口口 |----|
①口口② |----|
口③④口 |----|
口口口口 |①②③④|
36
①口口② |①---|
口口④口 |--②-|
口③口口 |----|
口①②口 |--③④|
37
口①②口 |①---|
口④口口 |--②-|
口口③口 |----|
①口口② |--③④|
38
①口口② |①---|
③口口口 |--②-|
口口④口 |----|
①口口② |--③④|
39
⑤②③口 |①-②-|
口口口口 |-③--|
④口口④ |④---|
①②③口 |⑤---|
40
口⑪⑪① |①②③④|
⑧②口⑦ |⑤⑥⑦⑧|
口⑥③口 |⑨-⑩-|
⑩④⑨⑤ |⑪---|
41
①⑪⑪口 |①②③④|
口⑦②⑧ |⑤⑥⑦⑧|
③⑨口④ |⑨-⑩-|
口⑤⑩⑥ |⑪---|
42
⑫⑯⑮③ |①②③④|
④⑧⑤⑨ |⑤⑥⑦⑧|
⑥⑩①⑬ |⑨⑩⑪⑫|
②⑭⑪⑦ |⑬⑭⑮⑯|
43
口口口③ |①---|
②口口③ |②---|
口口①口 |③---|
②口口③ |----|
44
口口口口 |①---|
口①①口 |----|
口①①口 |----|
口口口口 |----|
45
口口口口 |----|
口口口口 |----|
口口口口 |----|
口口口口 |----|
46
口口口口 |----|
口口口口 |----|
口口口口 |----|
口口口口 |----|
47
口口①口 |----|
口②②② |----|
口①口① |①---|
口口口口 |②---|
48
⑤⑤⑩⑩ |①②③④|
⑪⑫⑬⑭ |⑤-⑥⑦|
③⑨④⑧ |⑧⑨⑩-|
①⑦②⑥ |⑪⑫⑬⑭|
49
⑤⑤⑩⑩ |①②③④|
⑪⑫⑬⑭ |⑤-⑥⑦|
③⑨④⑧ |⑧⑨⑩-|
①⑦②⑥ |⑪⑫⑬⑭|
50
⑤口口⑩ |①②③④|
⑪⑫⑬⑭ |⑤-⑥⑦|
③⑨④⑧ |⑧⑨⑩-|
①⑦②⑥ |⑪⑫⑬⑭|
51
⑤⑥⑦⑨ |①②③④|
⑨口口口 |⑤⑥⑦-|
③⑨④⑧ |⑧---|
①⑧②⑧ |⑨---|
52
④③⑤口 |①---|
口①①口 |②-③-|
口口口⑥ |④---|
②⑤③口 |⑤-⑥-|
53
⑤③⑤① |①---|
①口口③ |②-③-|
口②口口 |④---|
④口口⑥ |⑤-⑥-|
54
口⑨⑫口 |①②③-|
⑪③⑥⑧ |④⑤⑥-|
⑦⑤②⑩ |⑦⑧⑨-|
口①④口 |⑩⑪⑫-|
55
口⑨⑫口 |①②③-|
⑪③⑥⑧ |④⑤⑥-|
口⑤②口 |⑦⑧⑨-|
①⑦⑩④ |⑩⑪⑫-|
56
④口口口 |①---|
口③口⑥ |②-③-|
①口口① |④---|
②⑤⑤③ |⑤-⑥-|
57
⑥②①⑥ |①---|
①口⑤口 |②-③-|
口③④② |④-⑤-|
④口口口 |⑥---|
58
口④⑦口 |①②③-|
⑩⑧口① |④⑤⑥-|
②口⑪⑤ |⑦⑧⑨-|
⑫⑥③⑨ |⑩⑪⑫-|
59
⑥⑦⑦③ |①②③-|
⑧口①口 |④⑤⑥-|
②④口⑤ |⑦---|
⑧口口口 |--⑧-|
60
⑤口⑥口 |①-②-|
口①②③ |③---|
口④④⑤ |④---|
口①②③ |⑤-⑥-|
61
⑥②口① |①---|
口口④② |②-③-|
④口口⑥ |④-⑤-|
口①③⑤ |⑥---|
62
口⑨⑫口 |①②③-|
①⑪⑧④ |④⑤⑥-|
口⑤②口 |⑦⑧⑨-|
⑦③⑥⑩ |⑩⑪⑫-|
63
③⑨⑫⑥ |①②③-|
①⑪⑧④ |④⑤⑥-|
口⑤②口 |⑦⑧⑨-|
口⑦⑩口 |⑩⑪⑫-|
64
⑤口口口 |①---|
①口⑥③ |②-③-|
①③⑤口 |④---|
口④口② |⑤-⑥-|
65
口⑥②① |①---|
口③口⑤ |②-③-|
②口口⑥ |④-⑤-|
①④口④ |⑥---|
66
①⑥③④ |①--②|
②口口⑤ |--③-|
③口口⑥ |④--⑤|
①⑤②④ |--⑥-|
67
①口③口 |①--②|
②口口口 |--③-|
③④④口 |④---|
①口②口 |----|
68
②口口⑧ |①---|
口①⑦口 |②-③-|
口⑥口④ |--④-|
⑤③③口 |⑤⑥⑦⑧|
69
口①口口 |①---|
④②口⑤ |②-③-|
④口口⑤ |--④-|
口口③③ |⑤---|
70
①②⑥⑤ |①--②|
口⑧④口 |--③④|
口③⑦口 |⑤--⑥|
①②⑥⑤ |--⑦⑧|
71
①②⑦⑤ |①--②|
⑥口④⑧ |--③④|
⑥③⑨口 |⑤-⑥-|
①②口⑩ |⑦⑧⑨⑩|
72
②口口⑧ |①---|
口①⑦口 |②-③-|
口⑥口④ |--④-|
⑤③③口 |⑤⑥⑦⑧|
73
口①③口 |①---|
⑦④口⑧ |②-③④|
⑦口⑤⑧ |⑤-⑥-|
口口⑥② |⑦-⑧-|
74
①②⑥⑤ |①--②|
口⑧④口 |--③④|
口③⑦口 |⑤--⑥|
①②⑥⑤ |--⑦⑧|
75
①③⑧⑥ |①-②③|
③口⑦④ |-④⑤-|
⑤⑨口② |⑥⑦-⑧|
①⑤⑨⑦ |⑨---|
76
①③口口 |①---|
口①⑥③ |②-③-|
⑤口口口 |④---|
②④口⑤ |⑤-⑥-|
77
②⑤②① |①---|
①③口⑤ |②-③-|
⑥口口④ |④---|
④口口口 |⑤-⑥-|
78
④口口① |①②③-|
⑫⑧⑨⑪ |④⑤⑥-|
口②⑤口 |⑦⑧⑨-|
⑩⑥③⑦ |⑩⑪⑫-|
79
④⑦⑦① |①②③-|
口⑧⑧口 |④⑤⑥-|
②⑨⑨⑤ |⑦-⑧-|
口⑥③口 |⑨---|
80
⑧⑦⑥⑤ |①-②-|
④口口③ |③-④-|
⑫⑪⑩⑨ |⑤⑥⑦⑧|
②口口① |⑨⑩⑪⑫|
81
口⑦⑦口 |①---|
⑥②③④ |②③④-|
口口口⑥ |--⑤-|
⑤①①⑤ |⑥-⑦-|
82
③口口② |①-②-|
⑤③口⑤ |③---|
①④②口 |④---|
口①④口 |⑤---|
83
口④⑥② |①-②-|
⑦③③口 |③-④-|
①口口⑥ |⑤---|
口⑦口⑤ |⑥-⑦-|
84
④⑤口口 |①---|
口口③② |②-③-|
④口①口 |④-⑤-|
口口②⑥ |⑥---|
85
口⑥③口 |①-②-|
①口⑤③ |③---|
⑥②口④ |④-⑤-|
①①④口 |⑥---|
86
口⑪⑪① |①②③④|
⑧②口⑦ |⑤⑥⑦⑧|
口⑥③口 |⑨-⑩-|
⑩④⑨⑤ |⑪---|
87
①口⑪⑪ |①②③④|
口⑦②⑧ |⑤⑥⑦⑧|
③⑨口④ |⑨-⑩-|
口⑤⑩⑥ |⑪---|
88
①⑥⑪口 |①②③④--|
②⑦⑫⑩ |⑤--⑥⑦⑧|
③⑧⑬⑤ |⑨-⑩-|
④⑨⑭口 |⑪⑫⑬⑭--|
89
②⑦口① |①--②③④|
③⑧口⑪ |⑤-⑥-|
④⑨口⑪ |⑦⑧⑨⑩--|
⑤⑩口⑥ |⑪---|
90
口口口口 |----|
口口口口 |----|
口口口口 |----|
口口口口 |----|
91
口口口口 |----|
口口口口 |----|
口口口口 |----|
口口口口 |----|
92
口②④口 |①---|
口①①口 |----|
口①①口 |②-③-|
口③⑤口 |④-⑤-|
93
①口口② |①②③④|
③⑨⑨④ |⑤⑥⑦⑧|
⑤口口⑥ |⑨---|
⑦口口⑧ |----|
94
⑦③⑦③ |①-②-|
口口口口 |③-④-|
④⑥②⑧ |⑤-⑥-|
口①⑤口 |⑦-⑧-|
95
⑦③⑦③ |①-②-|
口口口口 |③-④-|
口⑥②口 |⑤-⑥-|
①④⑧⑤ |⑦-⑧-|
96
⑥②⑥② |①---|
口口③口 |②-③-|
⑤口口口 |④-⑤-|
①口口④ |⑥---|
97
口⑨⑨口 |①-②③|
①③⑤⑦ |-④⑤-|
⑧⑥④② |⑥⑦-⑧|
①③⑤⑦ |⑨---|
98
⑦口口③ |①-②-|
②口口⑥ |③-④-|
⑦口口③ |⑤-⑥-|
①④⑤⑧ |⑦-⑧-|
99
口⑦⑦③ |①-②-|
⑥②口口 |③-④-|
口口口③ |⑤-⑥-|
①④⑤口 |⑦---|
100
⑤口口⑩ |-①②③|
⑨⑧⑦⑥ |④-⑤-|
①②③④ |-⑥⑦⑧|
⑤口口⑩ |⑨-⑩-|
101
⑨⑦⑧口 |①②③④|
⑪口⑪⑩ |⑤⑥⑦⑧|
⑤③④⑥ |⑨-⑩-|
⑪①②口 |⑪---|
102
口口口口 |①---|
口口口口 |----|
口口口口 |----|
口①口① |----|
103
口口口口 |----|
口口口口 |----|
口口口口 |----|
口口口口 |----|
104
口口口口 |----|
口口口口 |----|
口口口口 |----|
口口口口 |----|
105
口口口口 |----|
口口口口 |----|
口口口口 |----|
口口口口 |----|
106
⑤口口⑩ |①②③④|
⑪⑫⑬⑭ |⑤-⑥⑦|
③⑨④⑧ |⑧⑨⑩-|
①⑦②⑥ |⑪⑫⑬⑭|
107
⑤⑥⑦⑨ |①②③④|
⑨口口口 |⑤⑥⑦-|
③⑨④⑧ |⑧---|
①⑧②⑧ |⑨---|
108
口口口口 |----|
口口口口 |----|
口口口口 |----|
口口口口 |----|
109
口口口口 |----|
口口口口 |----|
口口口口 |----|
口口口口 |----|
110
口口口口 |①---|
口口口口 |②---|
口口口口 |③---|
①②③④ |④---|
111
口⑦④⑧ |①②③④|
③⑫⑫⑥ |⑤⑥⑦-|
⑤⑫⑫② |⑧-⑨⑩|
①⑨⑩⑪ |⑪-⑫-|

accuracy: 100%
最終更新:2023年07月20日 19:20