アットウィキロゴ
灰の羽搏
かめりあ feat. かめりあ

BASIC

Level: 7
BPM: 240
Notes: 541

1
口口口口 |----|
口口口口 |----|
口口口口 |----|
口口口口 |----|
2
口口口口 |----|
口口口口 |----|
口口口口 |----|
口口口口 |----|
3
口口口① |①---|
②口口口 |--②-|
口口口③ |----|
口口口口 |③---|
4
口①①口 |----|
口②②口 |①---|
口③③口 |②---|
口口口口 |③---|
5
④口口口 |①---|
③口口口 |②---|
②口口口 |③---|
口①①口 |④---|
6
口口口口 |①---|
口①①口 |----|
口③口口 |②---|
口口②口 |③---|
7
口口口④ |①---|
口口口③ |②---|
口口口② |③---|
口口口① |④---|
8
口口口口 |①---|
口①①口 |----|
口口口口 |----|
口口口口 |----|
9
口口口口 |①---|
口口口口 |--②-|
①②③口 |----|
①②③口 |③---|
10
口③②① |①---|
口③②① |--②-|
口口口口 |----|
口口口口 |③---|
11
口口口口 |①---|
③口口③ |--②-|
②口口② |----|
①口口① |③---|
12
①口口① |--①-|
口口口口 |----|
口口口口 |----|
口口口口 |----|
13
口口口口 |①---|
口口口口 |②---|
④口②口 |③---|
口③口① |④---|
14
口口口口 |①---|
口口口口 |----|
口③口① |②---|
②口①口 |③---|
15
口②口④ |①---|
①口③口 |②---|
口口口口 |③---|
口口口口 |④---|
16
①②②口 |①---|
口①口口 |----|
口口口口 |②---|
口口口口 |----|
17
口口口口 |①---|
④口②口 |②---|
口③口① |③---|
口口口口 |④---|
18
口口口口 |①---|
口②口④ |②---|
①口③口 |③---|
口口口口 |④---|
19
口①①口 |①---|
口口口口 |----|
口口口口 |----|
口口口口 |----|
20
口口口口 |①---|
口口口口 |----|
口口口口 |----|
口①①口 |----|
21
口口口口 |①---|
①口口① |----|
口口口口 |----|
口口口口 |----|
22
口②②口 |①---|
口③③口 |②---|
①④④① |③---|
口口口口 |④---|
23
④口口口 |①---|
口口口③ |②---|
②口口口 |③---|
口口①① |④---|
24
口口③口 |①---|
④口口口 |②---|
口口①① |③---|
口②口口 |④---|
25
④口口口 |①---|
口口①① |②---|
口口口③ |③---|
②口口口 |④---|
26
口④④口 |①---|
口③③口 |②---|
口②②口 |③---|
口①①口 |④---|
27
口口口口 |----|
口口口口 |----|
口口口口 |----|
口口口口 |----|
28
口口口口 |①---|
①口口① |--②-|
②口口② |----|
③口口③ |③---|
29
④③②① |①-②-|
口口口口 |③-④-|
口口口口 |----|
口⑤口口 |⑤---|
30
口口口③ |①---|
口口①口 |②---|
②口口口 |③---|
口口口口 |----|
31
口口口口 |①-②-|
①②③④ |③-④-|
口口口⑤ |----|
口口口口 |⑤---|
32
口口②口 |①---|
③口口口 |②---|
口口口口 |③---|
口①口口 |----|
33
口口口口 |①-②-|
⑤口口口 |③-④-|
④③②① |----|
口口口口 |⑤---|
34
口口②口 |①---|
口口口口 |②---|
口口口③ |③---|
口①口口 |----|
35
口口口口 |①-②-|
口口口口 |③-④-|
⑤口口口 |----|
①②③④ |⑤---|
36
④①口口 |①---|
口口②口 |②---|
口③口口 |③---|
口口口口 |④---|
37
口⑤口口 |①-②-|
口口口口 |③-④-|
口口口口 |----|
④③②① |⑤---|
38
口口口口 |①---|
②口口口 |②---|
口口①口 |③---|
口口口③ |----|
39
口口口口 |①-②-|
口口口⑤ |③-④-|
①②③④ |----|
口口口口 |⑤---|
40
口①口口 |①---|
口口口口 |②---|
③口口口 |③---|
口口②口 |----|
41
口口口⑤ |①-②-|
④③②① |③-④-|
口口口口 |----|
口口口口 |⑤---|
42
③口口口 |①---|
口④④口 |②---|
口①②口 |③---|
口口口口 |④---|
43
口口口① |①---|
②口口口 |--②-|
口口口③ |----|
口口口口 |③---|
44
口①①口 |----|
口②②口 |①---|
口③③口 |②---|
口口口口 |③---|
45
口④③② |----|
口口口口 |①---|
口口口口 |②-③-|
①口口① |④---|
46
口口口口 |①---|
口⑤④③ |②---|
②口口① |③-④-|
口②①口 |⑤---|
47
②③④口 |----|
口口口口 |①---|
口口口① |②-③-|
口口①口 |④---|
48
口口口口 |①-②-|
①②③④ |③-④-|
口⑤口口 |⑤---|
口口口口 |----|
49
②口口① |①---|
口⑤④③ |②---|
口口口口 |③-④-|
口口口口 |⑤---|
50
口口口口 |①-②-|
口口口口 |③---|
①②③口 |④-⑤-|
口⑥⑤④ |⑥---|
51
口口口口 |①---|
②口口① |②---|
口⑤④③ |③-④-|
口口口口 |⑤---|
52
②②②② |①---|
口①①口 |----|
口口口口 |②---|
口口口口 |----|
53
口口口口 |①---|
口②③口 |----|
口口口口 |----|
口①①口 |②-③-|
54
口口口口 |①---|
口口口① |----|
口口口口 |②---|
②口口② |----|
55
①口口② |①---|
口口口口 |②---|
①口口② |----|
口口口口 |----|
56
口口口口 |----|
①口口① |----|
口口口口 |----|
口口口口 |①---|
57
口口口口 |①---|
口③②口 |----|
口口口口 |----|
口①①口 |②-③-|
58
口口口口 |①---|
①口口口 |----|
口口口口 |②---|
口②②口 |----|
59
②口口① |①---|
口口口口 |②---|
②口口① |----|
口口口口 |----|
60
口①①口 |----|
口口口口 |----|
口口口口 |----|
口口口口 |①---|
61
口口口口 |①---|
口口②① |②---|
④③口口 |③---|
口口口口 |④---|
62
口②②口 |①---|
口口口口 |----|
口口口口 |②---|
口①①口 |----|
63
口口口口 |①---|
②口口② |----|
①口口① |②---|
口口口口 |----|
64
①口口① |①---|
口口口口 |----|
口口口口 |----|
口口口口 |----|
65
口口口口 |①---|
口口③③ |--②-|
口口②② |----|
口口①① |③---|
66
②口①① |--①-|
口口口口 |----|
口口口口 |②---|
口口口③ |③---|
67
口口口口 |①---|
③③口口 |--②-|
②②口口 |----|
①①口口 |③---|
68
①①口② |--①-|
口口口口 |----|
口口口口 |②---|
③口口口 |③---|
69
口口口口 |①---|
口口口口 |----|
口①①口 |----|
口口口口 |----|
70
口口口口 |①---|
口①①口 |----|
口口口口 |----|
口口口口 |----|
71
①口口① |----|
口口口口 |----|
口口口口 |①---|
口口口口 |----|
72
口口口口 |①---|
口②②口 |----|
口①①口 |②---|
口口口口 |----|
73
④③②① |①-②-|
口口口口 |③-④-|
口⑥口口 |--⑤-|
口口⑤口 |--⑥-|
74
口口口口 |--①-|
④③②① |②-③-|
口口口口 |④---|
口⑤⑤口 |⑤---|
75
⑥口口③ |①--②|
⑤口口② |--③-|
④口口① |④--⑤|
口口口口 |--⑥-|
76
口口口口 |--①-|
口⑤⑤口 |②-③-|
口口口口 |④---|
④③②① |⑤---|
77
④口口② |①---|
口口口口 |②---|
③口口① |③---|
口口口口 |④---|
78
口②①口 |①-②-|
口④③口 |③-④-|
口⑥⑤口 |⑤-⑥-|
口⑧⑦口 |⑦-⑧-|
79
①口口① |①---|
②口口② |--②-|
③口口③ |----|
口口口口 |③---|
80
口口口口 |--①-|
口口③口 |----|
口②口口 |②---|
①口口① |③---|
81
①②③④ |①-②-|
口口口口 |③-④-|
口口⑥口 |--⑤-|
口⑤口口 |--⑥-|
82
口口口口 |--①-|
①②③④ |②-③-|
口口口口 |④---|
口⑤⑤口 |⑤---|
83
③口口⑥ |①--②|
②口口⑤ |--③-|
①口口④ |④--⑤|
口口口口 |--⑥-|
84
口口口口 |--①-|
口⑤⑤口 |②-③-|
口口口口 |④---|
①②③④ |⑤---|
85
①⑥⑥口 |①--②|
②口口口 |--③-|
③口⑤④ |④-⑤-|
口口口口 |--⑥-|
86
口口口口 |--①-|
④③②① |②-③-|
口口口口 |④---|
口口口⑤ |⑤---|
87
口口口口 |①---|
口③③口 |--②-|
口②②口 |----|
口①①口 |③---|
88
口①①口 |--①-|
口口口口 |----|
口口口口 |----|
口口口口 |----|
89
④口口口 |①---|
③口口口 |②---|
②口口口 |③---|
①口口口 |④---|
90
口口口口 |①---|
口①①口 |----|
口③口口 |②---|
口口②口 |③---|
91
口口口④ |①---|
口口口③ |②---|
口口口② |③---|
口口口① |④---|
92
口口口口 |①---|
口①①口 |----|
口口口口 |----|
口口口口 |----|
93
口口口口 |①---|
口口口口 |--②-|
①②③口 |----|
①②③口 |③---|
94
口③②① |①---|
口③②① |--②-|
口口口口 |----|
口口口口 |③---|
95
口口口口 |①---|
③口口③ |--②-|
②口口② |----|
①口口① |③---|
96
①口口① |--①-|
口口口口 |----|
口口口口 |----|
口口口口 |----|
97
口口口口 |①---|
口口口口 |②---|
④口②口 |③---|
口③口① |④---|
98
口口口口 |①---|
口口口口 |----|
口③口① |②---|
②口①口 |③---|
99
口②口④ |①---|
①口③口 |②---|
口口口口 |③---|
口口口口 |④---|
100
①②②口 |①---|
口①口口 |----|
口口口口 |②---|
口口口口 |----|
101
口口口口 |①---|
④口②口 |②---|
口③口① |③---|
口口口口 |④---|
102
口口口口 |①---|
口②口④ |②---|
①口③口 |③---|
口口口口 |④---|
103
口①①口 |①---|
口口口口 |----|
口口口口 |----|
口口口口 |----|
104
口口口口 |----|
①②③④ |----|
口口口口 |①-②-|
口口口口 |③-④-|
105
口口口口 |①---|
口口口口 |②---|
口②口④ |③---|
①口③口 |④---|
106
②口口③ |①---|
口①①口 |----|
口②③口 |②---|
口口口口 |③---|
107
口①①口 |①---|
口口口口 |----|
口口口口 |----|
口口口口 |----|
108
①②③④ |①---|
口口口口 |②---|
口口口口 |③---|
口口口口 |④---|
109
口口口口 |①---|
①②③④ |②---|
口口口口 |③---|
口口口口 |④---|
110
口口口口 |①---|
口口口口 |②---|
①②③④ |③---|
口口口口 |④---|
111
口口口口 |①---|
口③③口 |②---|
口口口口 |③---|
①②口口 |----|
112
④③②① |①-②-|
口口口口 |③-④-|
口口口口 |----|
口⑤口口 |⑤---|
113
口口口③ |①---|
口口①口 |②---|
②口口口 |③---|
口口口口 |----|
114
口口口口 |①-②-|
①②③④ |③-④-|
口口口⑤ |----|
口口口口 |⑤---|
115
口口②口 |①---|
③口口口 |②---|
口口口口 |③---|
口①口口 |----|
116
口口口口 |①-②-|
⑤口口口 |③-④-|
④③②① |----|
口口口口 |⑤---|
117
口口②口 |①---|
口口口口 |②---|
口口口③ |③---|
口①口口 |----|
118
口口口口 |----|
④③②① |①-②-|
口口口口 |③-④-|
口口口口 |----|
119
口④口口 |①---|
口口③口 |②---|
口②口口 |③---|
口口①口 |④---|
120
口口口口 |①---|
口口口口 |②---|
④口口① |③---|
口③②口 |④---|
121
口②③口 |①---|
①口口④ |②---|
口口口口 |③---|
口口口口 |④---|
122
③口口③ |①---|
口①①口 |--②-|
口②②口 |----|
口口口口 |③---|
123
口口口口 |--①-|
③口口② |----|
③口口② |②---|
①口口① |③---|
124
②口口① |----|
④口口③ |----|
口口口口 |①-②-|
口口口口 |③-④-|
125
口口口口 |①-②-|
口口口口 |③-④-|
②⑧⑦① |⑤-⑥-|
④⑥⑤③ |⑦-⑧-|
126
口①①口 |①---|
口口口口 |----|
口口口口 |----|
口口口口 |----|

accuracy: 100%
最終更新:2023年08月04日 03:55