アットウィキロゴ
灰の羽搏
かめりあ feat. かめりあ

ADVANCED

Level: 9.5
BPM: 240
Notes: 833

1
口口口口 |----|
口口口口 |----|
口口口口 |----|
口口口口 |----|
2
口口口口 |----|
口口口口 |----|
口口口口 |----|
口口口口 |----|
3
口口口⑦ |①-②-|
⑧④①口 |③-④-|
口②⑤口 |⑤-⑥-|
口⑥③口 |⑦-⑧-|
4
口③③口 |①-②-|
口④④口 |③---|
口⑤⑤① |④---|
②口口口 |⑤---|
5
④口口口 |①---|
口口口③ |②---|
②口口口 |③---|
口①①口 |④---|
6
口口口④ |①---|
口②③口 |--②-|
口口口① |③---|
口口口① |④---|
7
口口④口 |①---|
口③口口 |②---|
口口②口 |③---|
口①口口 |④---|
8
口口口口 |①---|
①口口口 |----|
①口口口 |----|
口口口② |②---|
9
①⑤口口 |①---|
口③④口 |②-③-|
口①②口 |--④-|
口口口口 |⑤---|
10
口口①⑤ |①---|
④口口③ |②-③-|
②口口① |--④-|
口口口口 |⑤---|
11
口口口口 |①---|
③③③③ |--②-|
②②②② |----|
①①①① |③---|
12
①①①① |--①-|
口口口口 |----|
口口口口 |----|
口口口口 |----|
13
④口口③ |①---|
口②口口 |②---|
口口口口 |③---|
①①①① |④---|
14
口③口④ |①---|
口口口口 |②---|
①①①① |③---|
口口口② |④---|
15
口口口口 |①---|
①①①① |②---|
④口口③ |③---|
口②口口 |④---|
16
①①①① |①---|
⑤口口④ |----|
口口口口 |②-③-|
口③②口 |④-⑤-|
17
口口④口 |①---|
口③口口 |②---|
口①①口 |③---|
②口口口 |④---|
18
④口口③ |①---|
口口口口 |②---|
②口口① |③---|
口口口口 |④---|
19
口口口口 |①-②-|
口⑥③口 |③-④-|
⑧②⑤口 |⑤-⑥-|
口④①⑦ |⑦-⑧-|
20
②口口口 |①-②-|
口口口① |----|
口口口口 |----|
口口口口 |----|
21
口口口口 |①-②-|
⑥口③口 |③-④-|
⑧②口⑤ |⑤-⑥-|
④口①⑦ |⑦-⑧-|
22
口②②口 |①---|
口③③① |②---|
口④④口 |③---|
口口口口 |④---|
23
②口口① |①-②-|
④口口③ |③-④-|
⑥口口⑤ |⑤-⑥-|
⑧口口⑦ |⑦-⑧-|
24
口②①口 |①-②-|
口④③口 |③-④-|
口⑥⑤口 |⑤-⑥-|
口⑧⑦口 |⑦-⑧-|
25
口口②① |①-②-|
口口④③ |③-④-|
口口⑥⑤ |⑤-⑥-|
口口⑧⑦ |⑦-⑧-|
26
②①口口 |①-②-|
④③口口 |③-④-|
⑥⑤口口 |⑤-⑥-|
⑧⑦口口 |⑦-⑧-|
27
口口口口 |----|
口口口口 |----|
口口口口 |----|
口口口口 |----|
28
⑦口口口 |①-②-|
①口口④ |③-④-|
⑦②⑤口 |⑤-⑥-|
口⑥③口 |⑦---|
29
口④④① |①-②-|
②⑤⑤口 |③-④-|
口⑥⑥③ |--⑤-|
口口口口 |--⑥-|
30
⑤口口口 |--①-|
口口口③ |②-③-|
②口口口 |--④-|
④口①口 |--⑤-|
31
口④④① |①-②-|
②⑤⑤口 |③-④-|
口⑥⑥③ |--⑤-|
口口口口 |--⑥-|
32
口④口口 |--①-|
口口口③ |②-③-|
②口口口 |④---|
⑤口①⑤ |⑤---|
33
④口①④ |①-②-|
⑤②口⑤ |③-④-|
⑥口③⑥ |--⑤-|
口口口口 |--⑥-|
34
口⑤口口 |--①-|
口口③口 |②-③-|
口②口口 |--④-|
口④口① |--⑤-|
35
④口①④ |①-②-|
⑤②口⑤ |③-④-|
⑥口③⑥ |--⑤-|
口口口口 |--⑥-|
36
④口口口 |--①-|
口口③口 |②-③-|
口②口口 |④---|
口⑤⑤① |⑤---|
37
口④④① |①-②-|
②⑤⑤口 |③-④-|
口⑥⑥③ |--⑤-|
口口口口 |--⑥-|
38
⑤口口口 |--①-|
口口口③ |②-③-|
②口口口 |--④-|
④口①口 |--⑤-|
39
口④④① |①-②-|
②⑤⑤口 |③-④-|
口⑥⑥③ |--⑤-|
口口口口 |--⑥-|
40
口④口口 |--①-|
口口口③ |②-③-|
②口口口 |④---|
⑤口①⑤ |⑤---|
41
④口①④ |①-②-|
⑤②口⑤ |③-④-|
⑥口③⑥ |--⑤-|
口口口口 |--⑥-|
42
口②②口 |-①--|
口口口口 |②-③-|
口口口口 |----|
③①①③ |----|
43
口口口⑦ |①-②-|
⑧④①口 |③-④-|
口②⑤口 |⑤-⑥-|
口⑥③口 |⑦-⑧-|
44
口③③口 |①-②-|
口④④口 |③---|
口⑤⑤① |④---|
②口口口 |⑤---|
45
口口口② |----|
口口口③ |①---|
口口口④ |②-③-|
①口口① |④---|
46
①⑤口口 |①-②-|
口⑥②口 |③-④-|
③⑦口口 |⑤-⑥-|
口口④口 |⑦---|
47
口口②口 |----|
口口③口 |①---|
口口④口 |②-③-|
①口口① |④---|
48
①③口口 |①-②-|
口④口② |③-④-|
口⑤口口 |⑤---|
口口口口 |----|
49
口口③口 |①---|
口口④口 |②---|
②口⑤② |③-④-|
①口口① |⑤---|
50
①⑤口② |①-②-|
③⑥口④ |③-④-|
口⑦口口 |⑤-⑥-|
口⑧口口 |⑦-⑧-|
51
口④⑤口 |①---|
口口口③ |②---|
②口口② |③-④-|
①口口① |⑤---|
52
④口口④ |①--②|
口③③口 |--③-|
口②②口 |④---|
口①①口 |----|
53
口口口口 |①---|
口④口口 |----|
①口③① |--②-|
①②口① |③-④-|
54
口口①口 |①---|
口口口口 |----|
口口口口 |②---|
②口口② |----|
55
①口口② |①---|
③④⑤⑥ |②---|
口①②口 |③-④-|
口口口口 |⑤-⑥-|
56
口⑤⑤口 |①-②-|
口口口口 |③-④-|
口口口口 |----|
④③②① |⑤---|
57
口口口口 |①---|
口口④口 |----|
①③口① |--②-|
口口②口 |③-④-|
58
口①口口 |①---|
口口口口 |----|
口口口口 |②---|
②口口② |----|
59
②③③① |①---|
④③③口 |②---|
口②①口 |③---|
口口口口 |--④-|
60
口口口口 |①---|
口口口① |②-③-|
④口口④ |----|
②口口③ |④---|
61
口①口口 |①---|
口口②口 |②---|
口③口口 |③---|
口口④口 |④---|
62
口口②② |①---|
口口口口 |----|
口口口口 |②---|
①①口口 |----|
63
口①口口 |①---|
①口②口 |----|
口②口口 |②---|
口口口口 |----|
64
口口口口 |①---|
口口口口 |----|
口口口① |----|
口口①口 |----|
65
口口⑤③ |①---|
①口口① |②-③-|
口口口口 |--④-|
②④口口 |⑤---|
66
④②口口 |①-②-|
口口⑤口 |--③-|
口⑤口口 |④---|
口口①③ |⑤---|
67
口口④② |①---|
口①口口 |②-③-|
口口①口 |--④-|
③⑤口口 |⑤---|
68
③①口口 |①-②-|
口口⑤⑤ |--③-|
⑤⑤口口 |④---|
口口②④ |⑤---|
69
口口③② |①---|
①①口口 |----|
口口①① |----|
口口口口 |②--③|
70
口①口口 |--①-|
口口口口 |----|
口口口口 |----|
口口口口 |----|
71
①口口口 |----|
口口①口 |----|
口①口口 |①---|
口口口① |----|
72
口口口② |①---|
①②口① |----|
①口②① |②---|
②口口口 |----|
73
口④④口 |①-②-|
口⑤⑤③ |③-④-|
②⑥⑥口 |--⑤-|
口口口① |--⑥-|
74
⑥⑦⑧⑨ |--①-|
口口口③ |②-③-|
口口口⑤ |④-⑤-|
②④①口 |⑥⑦⑧⑨|
75
口口口口 |①--②|
①口口④ |--③-|
②口口⑤ |④--⑤|
③口口⑥ |--⑥-|
76
⑨⑧⑦⑥ |--①-|
③口④口 |②-③-|
口⑤②口 |④-⑤-|
口①口口 |⑥⑦⑧⑨|
77
口口口口 |①-②-|
口④⑦口 |③-④-|
⑧口口③ |⑤-⑥-|
②⑥①⑤ |⑦-⑧-|
78
⑦⑧⑨⑩ |①-②-|
④⑥口① |③-④-|
口②⑤口 |⑤-⑥-|
口口③口 |⑦⑧⑨⑩|
79
口口口口 |①---|
⑤⑤口② |②-③-|
③③口口 |--④-|
①①④口 |⑤---|
80
②②口③ |①-②-|
口口口口 |--③-|
口口①口 |④---|
④④口口 |----|
81
口④④口 |①-②-|
口⑤⑤③ |③-④-|
②⑥⑥口 |--⑤-|
口口口① |--⑥-|
82
⑥⑦⑧⑨ |--①-|
口口口③ |②-③-|
口口口⑤ |④-⑤-|
②④①口 |⑥⑦⑧⑨|
83
口口口口 |①--②|
①口口④ |--③-|
②口口⑤ |④--⑤|
③口口⑥ |--⑥-|
84
⑨⑧⑦⑥ |--①-|
③口④口 |②-③-|
口⑤②口 |④-⑤-|
口①口口 |⑥⑦⑧⑨|
85
口口口口 |①--②|
④口⑤③ |--③-|
④口⑤② |④-⑤-|
口⑥⑥① |--⑥-|
86
④⑤⑥⑦ |--①-|
⑧⑨⑩口 |②-③-|
口②口口 |④⑤⑥⑦|
①口口③ |⑧⑨⑩-|
87
口口口口 |①---|
口口口口 |--②-|
①口口② |----|
③①②③ |③---|
88
①口口① |--①-|
口①①口 |----|
口口口口 |----|
口口口口 |----|
89
口④④口 |①---|
②口口② |②---|
③口口③ |③---|
口①①口 |④---|
90
③口口口 |①---|
口①①② |----|
③①①口 |②---|
口口②口 |③---|
91
口④②口 |①---|
②口口④ |②---|
口口口① |③---|
③①口③ |④---|
92
口口口口 |①---|
口①①口 |----|
口①①口 |----|
②②口口 |②---|
93
⑤口①① |①---|
口口口④ |②-③-|
口③口② |--④-|
口口口口 |⑤---|
94
口口口⑤ |①---|
④口口口 |②-③-|
②口③口 |--④-|
口口①① |⑤---|
95
①口①口 |①---|
③②③② |--②-|
口①口① |----|
②③②③ |③---|
96
口①口① |--①-|
口口口口 |----|
①口①口 |----|
口口口口 |----|
97
口④口口 |①---|
①口③① |②---|
口②口口 |③---|
①口口① |④---|
98
口口口口 |①---|
口③口口 |----|
①口口① |②---|
口①①② |③---|
99
①口③① |①---|
④口口口 |②---|
口①①口 |③---|
②口口口 |④---|
100
口口口口 |①---|
口①①口 |----|
②③④⑤ |②-③-|
口①①口 |④-⑤-|
101
①①④口 |①---|
③口口④ |②---|
口口口口 |③---|
口③②② |④---|
102
③口口④ |①---|
口①②口 |②---|
口③②④ |③---|
①口口口 |④---|
103
口口②口 |①---|
⑦⑥⑤④ |②-③-|
口口口口 |④-⑤-|
③①①口 |⑥-⑦-|
104
口口口口 |①-②-|
口口口口 |③-④-|
④③②① |⑤-⑥-|
⑤⑥⑦⑧ |⑦-⑧-|
105
口①①口 |①---|
口口③口 |②---|
口④口② |③---|
口口口口 |④---|
106
③口口② |①---|
①口口口 |----|
口口口口 |②---|
口②③口 |③---|
107
⑤①①⑤ |①---|
④口口④ |②--③|
③口口③ |--④-|
②口口② |-⑤--|
108
口口口口 |①---|
口①①口 |----|
口①①口 |----|
口口口口 |----|
109
口口口口 |----|
口口口口 |----|
口口口口 |----|
口口口口 |----|
110
③口口④ |①---|
口①②口 |②---|
口③④口 |③---|
①口口② |④---|
111
口①②口 |①---|
①口口② |②---|
⑦口口口 |③④⑤⑥|
③④⑤⑥ |⑦---|
112
口④④① |①-②-|
②⑤⑤口 |③-④-|
口⑥⑥③ |--⑤-|
口口口口 |--⑥-|
113
⑤口口口 |--①-|
口口口③ |②-③-|
②口口口 |--④-|
④口①口 |--⑤-|
114
口④④① |①-②-|
②⑤⑤口 |③-④-|
口⑥⑥③ |--⑤-|
口口口口 |--⑥-|
115
口口口口 |①②③④|
⑦⑧⑨⑥ |⑤-⑥-|
⑤口口口 |⑦--⑧|
①②③④ |--⑨-|
116
④口③④ |①-②-|
⑤口口⑤ |③-④-|
⑥口①⑥ |--⑤-|
②口口口 |--⑥-|
117
口⑤口口 |--①-|
口口③口 |②-③-|
口②口口 |--④-|
口④口① |--⑤-|
118
④口①④ |----|
口②口口 |①-②-|
口口③⑤ |③-④-|
口口口口 |--⑤-|
119
口口⑥⑪ |①②③④|
⑩⑨⑧⑦ |⑤-⑥-|
⑫⑤口口 |⑦⑧⑨⑩|
①②③④ |⑪-⑫-|
120
①②口口 |①---|
口口口口 |②---|
口口③④ |③---|
口口口口 |④---|
121
口口口口 |①---|
口口②① |②---|
口口口口 |③---|
④③口口 |④---|
122
①⑤⑥② |①-②-|
③⑤⑥④ |--③-|
①③④② |④---|
口口口口 |⑤-⑥-|
123
口口口口 |--①-|
口口口口 |②-③-|
口⑦⑥⑤ |④-⑤-|
①②③④ |⑥-⑦-|
124
口口口口 |----|
口②①口 |----|
口口口口 |①-②-|
口④③口 |③-④-|
125
②⑥⑤① |①-②-|
口⑧⑦口 |③-④-|
④⑩⑨③ |⑤⑥⑦⑧|
口⑫⑪口 |⑨⑩⑪⑫|
126
口口口口 |①---|
口口口① |----|
口口口口 |----|
口口口口 |----|

accuracy: 100%
最終更新:2023年08月04日 04:16