アットウィキロゴ
灰の羽搏
かめりあ feat. かめりあ

EXTREME

Level: 10.7
BPM: 240
Notes: 1055

1
口口口口 |----|
口口口口 |----|
口口口口 |----|
口口口口 |----|
2
口口口口 |----|
口口口口 |----|
口口口口 |----|
口口口口 |----|
3
⑥口口③ |①-②-|
⑧口口口 |③-④-|
口②⑤口 |⑤-⑥-|
口④①⑦ |⑦-⑧-|
4
⑫⑪⑩⑨ |①-②-|
口⑥③① |③-④-⑤-|
口④⑦口 |⑥-⑦-⑧-|
②⑧⑤口 |⑨⑩⑪⑫|
5
口口口口 |①---|
④口口③ |②---|
口口口口 |③---|
②口口① |④---|
6
④口口口 |①---|
口口③口 |--②-|
口②口口 |③---|
口①①口 |④---|
7
口口口口 |①---|
④③口口 |②---|
口口②① |③---|
口口口口 |④---|
8
口口口口 |①---|
口口口口 |----|
②口口口 |----|
①口口① |②---|
9
口④③口 |①---|
口口口口 |②-③-|
口口口① |--④-|
口②⑤口 |⑤---|
10
④口口③ |①---|
口①①口 |②-③-|
口②⑤口 |--④-|
口口口口 |⑤---|
11
③②②口 |①---|
①口③① |--②-|
①③口① |----|
口②②③ |③---|
12
口口口① |--①-|
口①口口 |----|
口口①口 |----|
①口口口 |----|
13
⑦⑥⑤④ |①---|
①口③① |②---|
①②口① |③---|
口口口口 |④⑤⑥⑦|
14
口口口口 |①---|
⑤②口⑤ |②-③-|
口口④口 |④---|
③①①③ |⑤---|
15
⑦⑥⑤④ |①---|
口口③口 |②---|
①②口① |③---|
口口口口 |④⑤⑥⑦|
16
口口口⑥ |①---|
②④⑤② |--②-|
③口口口 |③-④-|
口①①口 |⑤-⑥-|
17
口①①口 |①---|
④口口口 |②---|
口口口③ |③---|
②口口口 |④---|
18
④口口④ |①---|
口④④口 |②---|
③②②⑤ |③-④-|
口②②① |⑤---|
19
口①⑥口 |①-②-|
③口口④ |③-④-|
口口口口 |⑤-⑥-|
⑤⑦⑧② |⑦-⑧-|
20
②②口口 |①-②-|
口口口口 |----|
①①口口 |----|
口口口口 |----|
21
口④⑦口 |①-②-|
⑥⑧③口 |③-④-|
②口口⑤ |⑤-⑥-|
口口口① |⑦-⑧-|
22
②口口② |①---|
④口口④ |②---|
口③②口 |③---|
③④①③ |④---|
23
口②①口 |①-②-|
口④③口 |③-④-|
口⑥⑤口 |⑤-⑥-|
口⑧⑦口 |⑦-⑧-|
24
口口②① |①-②-|
口口④③ |③-④-|
口口⑥⑤ |⑤-⑥-|
口口⑧⑦ |⑦-⑧-|
25
②①口口 |①-②-|
④③口口 |③-④-|
⑥⑤口口 |⑤-⑥-|
⑧⑦口口 |⑦-⑧-|
26
④③②① |①②③④|
⑧⑦⑥⑤ |⑤⑥⑦⑧|
⑫⑪⑩⑨ |⑨⑩⑪⑫|
⑯⑮⑭⑬ |⑬⑭⑮⑯|
27
口口口口 |----|
口口口口 |----|
口口口口 |----|
口口口口 |----|
28
口口口⑨ |①-②③|
①⑥②⑤ |④-⑤-|
①③⑦⑤ |⑥⑦⑧-|
⑨⑧④口 |⑨---|
29
①④①口 |①-②-|
④口⑤口 |③-④-|
②⑤口⑥ |--⑤-|
口口⑥③ |--⑥-|
30
口口口② |--①-|
口③口⑤ |②-③-|
口口③口 |--④-|
①④口口 |--⑤-|
31
①④①口 |①-②-|
④口⑤口 |③-④-|
②⑤口⑥ |--⑤-|
口口⑥③ |--⑥-|
32
⑥口口口 |--①-|
口⑤⑦② |②-③④|
口⑦④口 |⑤--⑥|
①③口⑥ |--⑦-|
33
口①④① |①-②-|
口⑤口④ |③-④-|
⑥口⑤② |--⑤-|
③⑥口口 |--⑥-|
34
②口口口 |--①-|
⑤口③口 |②-③-|
口③口口 |--④-|
口口④① |--⑤-|
35
口①④① |①-②-|
口⑤口④ |③-④-|
⑥口⑤② |--⑤-|
③⑥口口 |--⑥-|
36
③口口口 |--①-|
⑪⑦②⑥ |②-③-|
口⑤⑩④ |④⑤⑥⑦|
⑨口⑧① |⑧⑨⑩⑪|
37
口④①① |①-②-|
口口⑤⑥ |③-④-|
④⑤口口 |--⑤-|
口②⑥③ |--⑥-|
38
⑤口口口 |--①-|
①③口口 |②-③-|
口口③② |--④-|
④口口口 |--⑤-|
39
口④①① |①-②-|
口口⑤⑥ |③-④-|
④⑤口口 |--⑤-|
口②⑥③ |--⑥-|
40
口口口⑦ |--①-|
⑥⑤⑦口 |②-③④|
⑥口④② |⑤--⑥|
①③口口 |--⑦-|
41
①①④口 |①-②-|
⑥⑤口④ |③-④-|
口⑥口口 |--⑤-|
③口⑤② |--⑥-|
42
⑦⑥⑤④ |-①--|
⑪⑩⑨⑧ |②-③-|
②口②① |④⑤⑥⑦|
③①口③ |⑧⑨⑩⑪|
43
⑧口口口 |①-②-|
口口口口 |③-④-|
⑥②⑤③ |⑤-⑥-|
口④①⑦ |⑦-⑧-|
44
⑫⑪⑩⑨ |①-②-|
口⑥③① |③-④-⑤-|
口④⑦口 |⑥-⑦-⑧-|
②⑧⑤口 |⑨⑩⑪⑫|
45
口口口口 |----|
口口④③ |①-②-|
②口⑤口 |③④⑤-|
⑥口口① |⑥---|
46
②①口⑥ |①②③④|
④③⑫⑪ |⑤-⑥-|
⑩⑤口口 |⑦⑧⑨-|
口⑦⑧⑨ |⑩-⑪⑫|
47
口口口口 |①---|
④⑤口口 |②-③-|
口⑥①③ |④⑤⑥-|
②口口⑦ |⑦---|
48
⑥口①② |①②③④|
口口③④ |⑤-⑥-|
口口⑤口 |⑦---|
口⑦⑦口 |----|
49
④⑤③② |①---|
口⑥口口 |②-③-|
①②③① |④⑤⑥-|
⑦口⑦口 |⑦---|
50
⑦⑧⑪⑫ |①②③④|
②⑨⑩① |⑤---|
④⑥⑥③ |⑥-⑦⑧|
口口口⑤ |⑨⑩⑪⑫|
51
口口口口 |①---|
④口口⑦ |②-③-|
⑤口口② |④⑤⑥-|
⑥①③⑦ |⑦---|
52
①②③④ |①--②|
口④口口 |--③-|
口①②③ |④---|
口口④口 |----|
53
口口口口 |①---|
①③④① |----|
②口口口 |--②-|
口口口口 |③-④-|
54
口口口① |①---|
口口口口 |----|
口②②口 |②---|
口口口口 |----|
55
⑤④③② |①---|
口①口① |----|
⑤④③② |②-③-|
口①口① |④-⑤-|
56
口口⑤口 |①-②-|
①②③④ |③-④-|
口口口⑤ |----|
①②③④ |⑤---|
57
口①口口 |①---|
口口口口 |----|
①④③口 |--②-|
口口口② |③-④-|
58
口口口口 |①---|
①②②口 |----|
口口口口 |②---|
口口口口 |----|
59
③①口① |①---|
②口口② |----|
①③①口 |②---|
口②②口 |--③-|
60
口口口③ |①---|
口②①口 |②-③-|
④口③④ |----|
②口口① |④---|
61
口①口口 |①---|
口口②口 |②---|
口③口口 |③---|
口口④口 |④---|
62
口口②口 |①---|
口口口口 |----|
口口口口 |②---|
①①口口 |----|
63
①口口口 |①---|
口口口② |----|
①口口口 |②---|
口口口② |----|
64
口口口口 |①---|
口①口口 |----|
口口①口 |----|
口口口② |--②-|
65
⑤①⑤口 |①---|
③⑤①口 |②-③-|
①②口④ |--④-|
③口③口 |⑤---|
66
口②口③ |①-②-|
④口④② |--③-|
②⑤口口 |④---|
④①⑤口 |⑤---|
67
口⑤①⑤ |①---|
口①⑤③ |②-③-|
④口②① |--④-|
口③口③ |⑤---|
68
③口②口 |①-②-|
②④口④ |--③-|
口口⑤② |④---|
口⑤①④ |⑤---|
69
②②口① |①---|
③③①口 |----|
口①口③ |----|
①口口② |②--③|
70
口口口口 |--①-|
口口口① |----|
①①口口 |----|
口口口口 |----|
71
口②口口 |①-②-|
⑧⑥③口 |③-④-|
④口⑦① |⑤-⑥-|
口口⑤口 |⑦-⑧-|
72
②③④① |①-②③|
口口⑥⑪ |④-⑤⑥|
口⑤口⑪ |⑦⑧⑨⑩|
⑩⑨⑧⑦ |⑪---|
73
口④口③ |①-②-|
④②⑤口 |③-④-|
①⑤①⑥ |--⑤-|
口口⑥口 |--⑥-|
74
口口②⑫ |--①-|
⑨⑤⑩⑥ |②-③④|
⑦⑪⑧口 |⑤⑥⑦⑧|
③①口④ |⑨⑩⑪⑫|
75
①②③口 |①--②|
口口口口 |--③-|
口口口口 |④--⑤|
口⑥⑤④ |--⑥-|
76
口⑤口④ |--①-|
⑨①⑧口 |②-③-|
⑦⑪②⑥ |④⑤⑥⑦|
③口⑩口 |⑧⑨⑩⑪|
77
④口②口 |①-②-|
口③口① |③-④-|
⑧口⑥口 |⑤-⑥-|
口⑦口⑤ |⑦-⑧-|
78
口③口① |①-②-|
⑥⑩⑨口 |③-④-|
口⑧⑦⑤ |⑤-⑥-|
④口②口 |⑦⑧⑨⑩|
79
②⑤①口 |①---|
口口口③ |②-③-|
⑤口口④ |--④-|
口③⑤③ |⑤---|
80
口口②④ |①-②-|
②④①口 |--③-|
口②③口 |④---|
⑤④口口 |⑤---|
81
③口④口 |①-②-|
口⑤②④ |③-④-|
⑥口⑤① |--⑤-|
口⑥口① |--⑥-|
82
⑫②口口 |--①-|
⑥⑩⑤⑨ |②-③④|
口⑧⑪⑦ |⑤⑥⑦⑧|
④口①③ |⑨⑩⑪⑫|
83
口③②① |①--②|
口口口口 |--③-|
口口口口 |④--⑤|
④⑤⑥口 |--⑥-|
84
④口⑤口 |--①-|
口⑧①⑨ |②-③-|
⑥②⑪⑦ |④⑤⑥⑦|
口⑩口③ |⑧⑨⑩⑪|
85
⑤②⑧② |①--②|
①⑦④口 |--③-|
口⑤口⑥ |④-⑤-|
③口③④ |⑥⑦⑧-|
86
⑩②口③ |--①-|
⑧口⑨口 |②-③-|
⑥口⑦口 |④⑤⑥⑦|
④①⑤口 |⑧⑨⑩-|
87
口③②口 |①---|
口口口口 |--②-|
口②③① |----|
口②③① |③---|
88
②口口② |①-②-|
口②②口 |----|
②口口② |----|
①口口口 |----|
89
⑦口⑤口 |①②③④|
⑥口⑦口 |⑤---|
口④③⑤ |⑥---|
口②①⑥ |⑦---|
90
口①口① |①---|
口②口⑤ |②-③-|
口④口③ |④---|
口⑤④口 |⑤---|
91
④口口④ |①---|
③口②口 |②---|
②口口③ |③---|
①口口① |④---|
92
口①口口 |①---|
口②口① |②---|
口③①口 |③---|
口④④口 |④---|
93
⑥口③口 |①---|
④口①② |②-③-|
②口⑤口 |④-⑤-|
①口口⑥ |⑥---|
94
口①⑥① |①---|
口②口③ |②-③-|
口④口⑤ |④-⑤-|
口⑥②口 |⑥---|
95
⑫⑧⑬口 |①②③④|
②⑩①⑦ |⑤-⑥⑦|
⑥⑭③⑪ |⑧⑨⑩-|
④口⑨⑤ |⑪⑫⑬⑭|
96
口⑩口① |①-②③|
④⑫③⑨ |④⑤⑥-|
⑧口⑤⑬ |⑦⑧⑨⑩|
⑥②⑪⑦ |⑪⑫⑬-|
97
①口口口 |①---|
口口口口 |----|
口①口口 |----|
口口口口 |----|
98
口①②口 |①---|
①口口② |--②-|
②口口① |----|
口②①口 |----|
99
口口口口 |①---|
口①①口 |----|
口①①口 |----|
口口口口 |----|
100
⑥①②口 |①---|
②口⑤① |--②-|
①④③② |③-④-|
口②①口 |⑤-⑥-|
101
口口口④ |①---|
口③口口 |②---|
口口口口 |③---|
②口口① |④---|
102
③口口口 |①---|
口口口④ |②---|
口②①口 |③---|
口口口口 |④---|
103
④口口② |①---|
①④②口 |----|
⑤口口③ |②-③-|
①⑤③口 |④-⑤-|
104
口③①⑦ |①-②-|
③口⑥① |③---|
口⑤②口 |④-⑤-|
④口口② |⑥-⑦-|
105
①口口口 |①---|
③口口④ |②---|
①口口③ |③---|
④口②② |④---|
106
口②③口 |①---|
口②③口 |----|
②①①③ |②---|
口③②口 |③---|
107
②④⑤③ |①---|
①口口① |②--③|
口③②口 |--④-|
①⑤④① |-⑤--|
108
口口口口 |①---|
③①①口 |②---|
①口口① |③---|
④口口② |④---|
109
口口口口 |①---|
④口口① |②---|
口口口口 |③---|
口③②口 |④---|
110
⑩口⑦口 |①-②③|
⑫④①⑨ |④-⑤⑥|
⑧⑥口③ |⑦-⑧⑨|
②口⑤⑪ |⑩-⑪⑫|
111
口④口① |①-②③|
口⑥⑦⑪ |④-⑤⑥|
口⑧③⑤ |⑦⑧⑨⑩|
⑩②⑨口 |⑪---|
112
①④①口 |①-②-|
④口⑤口 |③-④-|
②⑤口⑥ |--⑤-|
口口⑥③ |--⑥-|
113
口口口② |--①-|
口③口⑤ |②-③-|
口口③口 |--④-|
①④口口 |--⑤-|
114
①⑦②⑥ |①②③④|
③口④口 |⑤--⑥|
⑤⑥口口 |--⑦-|
⑧口⑧⑦ |-⑧--|
115
口⑩③⑩ |①②③④|
④⑥⑨⑤ |⑤⑥⑦⑧|
⑧口⑦① |⑨--⑩|
⑪②⑪口 |--⑪-|
116
⑤口⑪⑩ |①②③④|
⑥口口⑦ |⑤-⑥-|
⑨①⑧② |⑦-⑧-|
口③口④ |⑨-⑩⑪|
117
④①口口 |①-②-|
⑦⑥⑤口 |③-④-|
口③口口 |⑤--⑥|
②⑦⑥⑤ |--⑦-|
118
④①①④ |----|
口口⑥口 |①-②-|
①⑤②① |③-④-|
③口口口 |--⑤⑥|
119
⑬⑨⑥⑫ |①②③④|
①⑤口④ |⑤⑥⑦-|
⑦⑮⑩⑧ |⑧⑨⑩⑪|
⑪③⑭② |⑫⑬⑭⑮|
120
口口口口 |①---|
②口①口 |②---|
口口口口 |③---|
口③口④ |④---|
121
口口口口 |①---|
口②口① |②---|
口口口口 |③---|
③口④口 |④---|
122
口④①③ |①-②-|
②⑥⑥口 |--③-|
③口④② |④---|
⑤①口⑤ |⑤-⑥-|
123
⑥⑤②⑥ |--①-|
③口口④ |②-③-|
④②⑤③ |④-⑤-|
⑦①①⑦ |⑥-⑦-|
124
口⑤②口 |----|
口①口⑥ |----|
③口④口 |①②③④|
口⑦⑧口 |⑤⑥⑦⑧|
125
⑨⑬⑧口 |①---|
①⑦②⑫ |②③④⑤|
⑪③⑩⑥ |⑥⑦⑧⑨|
⑤口口④ |⑩⑪⑫⑬|
126
口口口口 |①---|
口口口口 |----|
口口口口 |----|
口①①口 |----|

accuracy: 100%
最終更新:2023年08月04日 04:33