アットウィキロゴ
Reach The Sky / YUKIYANAGI
BPM:170
Notes:1022

1
③①①②|①---|
④②③⑦|②-③-|
①⑤⑥①|④-⑤-|
④⑤⑥⑦|⑥-⑦-|

2
②□②⑤|①---|
③④④□|②-③-|
①③⑤①|④-⑤-|
⑥⑦⑧⑨|⑥⑦⑧⑨|

3
□①①□|①---|
③⑤⑥②|②-③-|
④②③⑦|④-⑤-|
④⑤⑥⑦|⑥-⑦-|

4
③⑥⑥③|①-②-|
③④⑤③|③-④-|
⑥①②⑥|⑤-⑥-|
⑦⑧⑨⑩|⑦⑧⑨⑩|

5
③⑤⑥②|①---|
④②③⑦|②-③-|
□①①□|④-⑤-|
④⑤⑥⑦|⑥-⑦-|

6
③⑤⑥□|①-②-|
□①⑤□|③-④-|
①②③④|⑤-⑥-|
⑦⑧⑨⑩|⑦⑧⑨⑩|

7
④②⑥⑦|①---|
①⑤⑥①|②-③-|
④⑤③⑦|④-⑤-|
④⑤⑥⑦|⑥-⑦-|

8
③①□□|①-②-|
①□□②|③④-⑤|
□⑥④□|⑥⑦⑧-|
⑤□⑦⑧|⑨-⑩⑪|

□⑨⑨□
□□⑪⑩
□□□□
□□□□

9
①⑤□②|①-②-|
③⑦⑨⑧|③-④-|
①⑤④⑥|⑤-⑥-|
□□□□|⑦-⑧⑨|

10
①⑥②⑦|①-②-|
③⑧⑨□|③-④⑤|
①⑥⑤④|⑥-⑦-|
□□□□|⑧-⑨-|

11
①⑤②⑧|①-②-|
③⑦□⑥|③-④-|
①⑤□④|⑤-⑥-|
□□□□|⑦-⑧⑨|

□□⑨□
□□□□
□□□□
□□□□

12
①⑥□□|①-②-|
③⑧⑤④|③-④⑤|
①⑥②⑨|⑥-⑦-|
③⑧□⑦|⑧-⑨⑩|

□□□□
□□□□
□□⑩□
□□□□

13
□□□□|①-②-|
①⑤④②|③-④-|
③⑦⑨⑧|⑤-⑥-|
①⑤□⑥|⑦-⑧⑨|

14
□□□□|①-②-|
①⑥⑤④|③-④⑤|
③⑧⑩⑨|⑥-⑦-|
①⑥②⑦|⑧-⑨⑩|

15
□□□□|①-②-|
①⑥⑤④|③-④⑤|
③⑧⑩⑨|⑥-⑦-|
①⑥②⑦|⑧-⑨⑩|

16
⑦⑦②□|①-②-|
①⑨⑥③|③-④-|
⑤⑥⑨⑧|⑤-⑥-⑦-|
①⑤⑧④|⑧-⑨-⑩-|

□□⑩⑩
□□□□
□□□□
□□□□

17
⑤□□⑥|①---|
①□③①|②-③-|
②④⑦□|④-⑤-|
④⑤⑥⑦|⑥-⑦-|

18
⑥①③⑧|①-②-|
②⑤⑦④|③-④-|
①□□③|⑤-⑥-|
⑤□□⑦|⑦-⑧-|

19
□①③□|①-②-|
①⑤⑦③|③-④-|
□⑥⑧□|⑤-⑥-|
⑤②④⑦|⑦-⑧-|

20
②①③④|①-②-|
⑤⑥⑧⑦|③-④-|
①□□③|⑤-⑥-|
□⑤⑦□|⑦-⑧-|

21
⑤②③⑥|①---|
□④⑦□|②-③-|
①□□①|④-⑤-|
④⑤⑥⑦|⑥-⑦-|

22
⑥□□⑧|①-②-|
①⑤⑦③|③-④-|
②①③④|⑤-⑥-|
□⑤⑦□|⑦-⑧-|

23
⑥④③⑥|①-②-|
□□□②|③-④-|
④□②⑤|⑤-⑥-|
①③⑤①|⑦⑧⑨⑩|

□□□□
⑦⑧⑨⑩
□⑨□□
□□□⑦

24
⑥②④⑧|①-②-|
□□□□|③-④-|
□□□□|⑤-⑥-|
⑤①③⑦|⑦-⑧-|

25
⑤②④④|①---|
②①⑤①|②-③-|
①⑤①③|--④-|
④④③⑤|--⑤-|

26
□①□④|----|
□□□□|①-②-|
□□⑤□|--③-|
□②□③|④-⑤-|

27
②□⑤□|①---|
□①□①|②-③-|
□□□□|--④-|
①③①④|⑤-⑥-|

□□□□
□□□□
□□□□
□□⑥□

28
④□□②|①-②-|
①③②④|--③-|
④①③②|--④-|
①□□④|----|

29
⑤②□□|①-②-|
②③②③|--③-|
③①③①|--④-|
④□①□|⑤-⑥-|

□□□□
□□⑥□
□⑥□⑥
□□⑥□

30
□①③□|----|
□□□□|①-②-|
②④②④|----|
□②④□|③-④-|

31
□②③□|----|
②③②③|①-②-|
□③□③|----|
□①□□|③---|

32
④□□②|①-②-|
□□⑥⑤|③-④-|
□□⑧⑦|⑤⑥⑦⑧|
③□□①|⑨-⑩-|

□□□□
□⑩□□
□□□□
□□□⑨

33
④①①⑤|①---|
②⑤④③|②-③-|
②④⑤③|--④-|
⑤①①④|--⑤-|

34
□①□□|----|
⑤□□④|①-②-|
②□□□|--③-|
□□③□|④-⑤-|

35
①②□⑤|①---|
□□①□|②-③-|
□①⑥□|--④-|
④□③①|⑤-⑥-|

36
□③②④|①-②-|
②④①③|--③-|
③①④②|--④-|
④②③□|----|

37
①③②④|①-②-|
②□□③|--③-|
③□□②|--④-|
④②③①|⑤-⑥-|

⑤□⑥□
□⑥□□
□□⑥□
□⑥□⑤

38
□①③□|----|
①□□③|①-②-|
①□□③|----|
□④②□|③-④-|

39
□□□□|----|
□①③□|①-②-|
①③②③|----|
①③□③|③---|

40
③□□②|--①-|
□④⑦⑥|②-③④|
⑤□⑨⑧|⑤-⑥⑦|
①□□⑩|⑧⑨⑩-|

41
⑤①①④|①-②-|
②③□⑥|③-④-|
□□⑥⑤|⑤-⑥-|
④③②□|⑦-⑧-|

□□⑦□
□□□□
⑧⑦□□
□□⑧□

42
□⑥⑤④|--①-|
③②①⑤|②-③-|
⑥④□□|④-⑤-|
③②□①|⑥-⑦-|

⑦□□□
□□⑦□
□□□□
□□□□

43
⑤□□②|--①-|
⑥□□③|②-③-|
④⑤⑥①|④-⑤-|
④①②③|⑥-⑦-|

□□⑦□
□□□□
□□□⑦
□□□□

44
④⑤⑥①|--①-|
□①②③|②-③-|
□④⑥⑤|④-⑤-|
□②□③|⑥-⑦-|

□□□⑦
□□□□
⑦□□□
□□□□

45
④⑤□⑥|--①-|
①⑥⑤④|②-③-|
□②□③|④-⑤-|
②□③①|⑥-⑦-|

□□⑦□
⑦□□□
□□□□
□□□□

46
⑦⑥⑤④|--①-|
□⑥⑤③|②-③-|
⑦②②④|④-⑤-|
③①□①|⑥-⑦-|

47
□④□②|--①-|
①⑥⑤④|②-③-|
⑥②⑤□|④-⑤-|
③□③①|⑥-⑦-|

□□⑦□
⑦□□□
□□□□
□□□□

48
①⑥⑤④|--①-|
⑥□□③|②-③-|
⑤□□②|④-⑤-|
④③②①|⑥-⑦-|

⑦□□□
□□□□
□□□□
□□□□

49
□□⑦⑦|①-②-|
□①①□|③-④-|
□⑦⑥⑤|⑤-⑥-|
④③②□|⑦-⑧-|

□□□□
□□□□
⑧□□□
□□⑧⑧

50
□⑥⑤④|--①-|
③②①□|②-③-|
⑤⑤③③|④-⑤-|
①①□□|⑥-⑦-|

⑦□□□
□□⑦⑦
□□□□
□□□□

51
□□□□|--①-|
□□□□|②-③-|
④⑤⑥⑦|④-⑤-|
□①②③|⑥-⑦-|

52
④⑤⑥⑦|--①-|
□①②③|②-③-|
□□□□|④-⑤-|
⑥⑥□□|⑥-⑦-|

53
④④□□|①-②-|
②□⑥⑤|③-④-|
④③①①|⑤-⑥-|
□□④①|⑦-⑧-|

□□⑦⑦
⑧⑦□□
□□□⑦
□□□□

54
⑦⑥⑤④|--①-|
□□□③|②-③-|
⑥□②□|④-⑤-|
⑥①□□|⑥-⑦-|

55
□□□□|①-②-|
②①⑥⑤|③-④-|
□③④①|⑤-⑥-|
□④④①|⑦-⑧-|

⑦□□□
⑧⑦□□
⑦□□□
□□□□

56
⑦⑥⑤④|--①-|
□□□③|②-③-|
□□□②|④-⑤-|
□□□①|⑥-⑦-|

57
□□□④|①---|
②⑦⑧□|②-③-|
□⑤⑥□|--④-|
③①①□|⑤⑥⑦⑧|

58
②□□□|①---|
①⑥⑦⑤|②-③-|
③⑧⑨□|④-⑤-|
□①□④|⑥⑦⑧⑨|

59
④①□②|①---|
①⑧⑦□|②-③-|
□⑥⑤□|--④-|
□□□③|⑤⑥⑦⑧|

60
⑤□□②|①---|
④□□③|②-③-|
□□□①|④-⑤-|
□⑥①□|⑥⑦⑧-|

□□□□
□□□□
□□□□
□□⑦⑧

61
③①①②|①---|
④②③⑦|②-③-|
①⑤⑥①|④-⑤-|
④⑤⑥⑦|⑥-⑦-|

62
□③④□|①-②-|
□⑦⑧□|③-④-|
①□□②|⑤-⑥-|
⑤□□⑥|⑦-⑧-|

63
④②⑥⑦|①---|
①⑤⑥①|②-③-|
④⑤③⑦|④-⑤-|
④⑤⑥⑦|⑥-⑦-|

64
③①□□|①-②-|
①□□②|③④-⑤|
□⑥④□|⑥⑦⑧-|
⑤□⑦⑧|⑨---|

□⑨⑨□
□□□□
□□□□
□□□□

65
⑤□⑦①|①--②|
⑥①③⑩|③④⑤-|
④⑧⑥①|⑥--⑦|
⑥②□⑨|⑧⑨⑩-|

66
⑤□⑧①|①--②|
⑥①③⑩|③④⑤-|
④⑨⑥①|⑥-⑦⑧|
⑥②⑨⑦|⑨-⑩-|

67
⑤②⑥□|①--②|
⑥①③⑩|③④⑤-|
④⑧⑥①|⑥--⑦|
□①⑦⑨|⑧⑨⑩-|

68
⑤②⑧□|①--②|
⑥①③⑦|③④⑤-|
④⑧⑥①|⑥-⑦-|
□①⑦□|⑧-⑨-|

□□□⑨
□□□□
□□□⑨
□□□□

69
□①⑥□|①--②|
⑤①③⑩|③④⑤-|
④⑧⑥⑨|⑥--⑦|
①②⑦⑥|⑧⑨⑩-|

70
①②⑧⑥|①--②|
⑤①③⑩|③④⑤-|
④⑨⑥⑦|⑥-⑦⑧|
□①⑥⑨|⑨-⑩-|

71
①②⑦⑥|①--②|
⑤①③⑩|③④⑤-|
④⑧⑥⑨|⑥--⑦|
①□□⑥|⑧⑨⑩-|

72
①②⑧⑥|①--②|
④①⑤□|-③④-|
③⑧⑦□|⑤-⑥-|
①⑤⑥⑦|⑦-⑧-|

73
③⑧⑫⑦|①-②③|
⑥①④①|④⑤⑥-|
⑦⑩⑦②|⑦-⑧⑨|
①⑤⑨⑪|⑩⑪⑫-|

74
③⑨□⑦|①-②③|
⑥①④①|④⑤⑥-|
⑦⑩⑦②|⑦-⑧⑨|
①⑤⑩⑧|⑩-⑪-|

□□□□
□□□⑪
□□□□
□□□□

75
①⑨③⑦|①-②③|
⑧①④⑫|④⑤⑥-|
⑥⑩⑦②|⑦-⑧⑨|
①⑤⑪⑦|⑩⑪⑫-|

76
①□⑧⑦|①-②③|
⑥①④⑧|④⑤⑥-|
②⑨⑦③|⑦-⑧-|
①⑤⑨⑦|⑨-⑩-|

□⑩□□
□□□□
□□□□
⑩□□□

77
①⑧④□|①--②|
⑦①①⑤|-③④-|
①⑤⑤③|⑤--⑥|
□②⑥⑤|-⑦⑧-|

78
①□④□|①--②|
⑦①①⑤|-③④-|
①⑤⑤③|⑤-⑥⑦|
□②⑥⑤|⑧-⑨-|

□□□□
□⑧⑧□
⑨□□□
⑧□□□

79
①②③④|①②③④|
⑫⑬⑭⑤|⑤⑥⑦⑧|
⑪⑯⑮⑥|⑨⑩⑪⑫|
⑩⑨⑧⑦|⑬⑭⑮⑯|

80
①①⑥⑥|①-②③|
□⑧□⑩|④⑤⑥-|
⑦□⑨⑥|⑦⑧⑨⑩|
⑤④③②|⑪---|

□⑪□□
⑪□⑪□
□⑪□□
□□□□
最終更新:2023年07月01日 23:24