アットウィキロゴ
Freeway Shuffle
dj TAKA

BASIC

Level: 3
BPM: 145
Notes: 209

1
口口口口 |----|
口①①口 |----|
口口口口 |----|
口口口口 |--①-|
2
①口口① |----|
口口口口 |----|
口口口口 |----|
口口口口 |①---|
3
口口口口 |①---|
口口口口 |②---|
口口口口 |③---|
①②③口 |----|
4
口口口口 |①---|
口口口口 |②---|
口③②① |③---|
口口口口 |----|
5
口口口口 |①---|
①②③口 |②---|
口口口口 |③---|
口口口口 |----|
6
口③②① |①---|
口口口口 |②---|
口口口口 |③---|
口口口口 |----|
7
口口口口 |①---|
口③口口 |②---|
口口②口 |③---|
口①口口 |----|
8
口口口口 |①---|
口口③口 |②---|
口②口口 |③---|
口口①口 |----|
9
③口口口 |①---|
口口口② |②---|
①口口口 |③---|
口口口口 |----|
10
口口口③ |①---|
②口口口 |②---|
口口口① |③---|
口口口口 |----|
11
口①①口 |①---|
口口口② |----|
口口口③ |②---|
口口口口 |③---|
12
口口口口 |①---|
②口口口 |----|
③口口口 |②---|
口口口① |③---|
13
口口口口 |①---|
口口②口 |----|
口口③口 |②---|
①口口口 |③---|
14
口口口口 |①---|
口②口口 |----|
口③口口 |②---|
口口①口 |③---|
15
口口口口 |①---|
口③口口 |②---|
口口②口 |③---|
口①口口 |----|
16
口口口口 |①---|
口口口③ |②---|
②口口口 |③---|
口口口① |----|
17
口③口口 |①---|
口口②口 |②---|
口①口口 |③---|
口口口口 |----|
18
口口口口 |①---|
口④③口 |②---|
口②①口 |③---|
口口口口 |④---|
19
①口口① |①---|
口口口口 |----|
②口口② |②---|
口口口口 |----|
20
口口口口 |①---|
口③②① |②---|
口口口口 |③---|
口口口口 |----|
21
口口口口 |①---|
口②②口 |----|
口口口口 |②---|
口①①口 |----|
22
口口口口 |①---|
口口口口 |②---|
①②③口 |③---|
口口口口 |----|
23
①口口② |①---|
口③口口 |②---|
口口口口 |----|
口口口口 |③---|
24
口口口口 |①---|
口口口口 |②---|
口口口口 |③---|
④③②① |④---|
25
口口口口 |①---|
口④③口 |②---|
口②①口 |③---|
口口口口 |④---|
26
口口口口 |①---|
①口口① |----|
口口口口 |②---|
②口口② |----|
27
①口口① |①---|
口口口口 |----|
②口口② |②---|
口口口口 |----|
28
口口口口 |①---|
口③②① |②---|
口口口口 |③---|
口口口口 |----|
29
口口口口 |①---|
口②②口 |----|
口口口口 |②---|
口①①口 |----|
30
口口口口 |①---|
口口口口 |②---|
①②③口 |③---|
口口口口 |----|
31
①口口② |①---|
口③口口 |②---|
口口口口 |----|
口口口口 |③---|
32
口口口口 |①---|
口口口口 |②---|
口口口口 |③---|
④③②① |④---|
33
口口口口 |①---|
口④③口 |②---|
口②①口 |③---|
口口口口 |④---|
34
口口口口 |①---|
①口口① |----|
口口口口 |②---|
②口口② |----|
35
①②③④ |①---|
口口口口 |②---|
口口口口 |③---|
口口口口 |④---|
36
口口口口 |①---|
口①②口 |②---|
口①②口 |----|
口口口口 |----|
37
口口口口 |①---|
口口口口 |②---|
口口口口 |③---|
④③②① |④---|
38
口口①① |①---|
②②口口 |②---|
口口③③ |③---|
口口口口 |----|
39
①口口② |①---|
口口口口 |②---|
口③③口 |----|
口口口口 |③---|
40
口口口口 |①---|
口③③口 |②---|
口口口口 |----|
②口口① |③---|
41
口④口口 |①---|
口口③口 |②---|
口②口口 |③---|
口口①口 |④---|
42
口口口口 |①---|
②口口② |----|
①口口① |②---|
口口口口 |----|
43
①口口① |①---|
口口口口 |----|
口口口口 |②---|
口②口口 |----|
44
口②口口 |①---|
口口口口 |----|
口口①口 |②---|
口口口口 |----|
45
口口口口 |①---|
口①①口 |----|
口口口口 |----|
口口口口 |----|
46
口口口口 |①---|
口口口口 |②---|
④③②① |③---|
口口口口 |④---|
47
口口口口 |①---|
口①①口 |----|
口口口口 |----|
口口口口 |----|
48
口口口口 |①---|
口口口口 |----|
口①①口 |----|
口口口口 |----|
49
①口口① |①---|
②口口② |----|
口口口口 |②---|
口口口口 |----|
50
口口口口 |①---|
口口口口 |----|
①口口① |②---|
②口口② |----|
51
①②③④ |①---|
口口口口 |②---|
口口口口 |③---|
口口口口 |④---|
52
口口口口 |①---|
口①②口 |②---|
口①②口 |----|
口口口口 |----|
53
口口口口 |①---|
口口口口 |②---|
口口口口 |③---|
④③②① |④---|
54
口口①① |①---|
②②口口 |②---|
口口③③ |③---|
口口口口 |----|
55
①口口② |①---|
口口口口 |②---|
口③③口 |----|
口口口口 |③---|
56
口口口口 |①---|
口③③口 |②---|
口口口口 |----|
②口口① |③---|
57
口④口口 |①---|
口口③口 |②---|
口②口口 |③---|
口口①口 |④---|
58
口口口口 |①---|
口口口口 |----|
①口口① |----|
口口口口 |----|
59
①口口① |①---|
口口口口 |----|
口口口口 |----|
口口口口 |----|
60
口口口口 |①---|
口口口口 |----|
口口口口 |----|
口①①口 |----|
61
口①①口 |①---|
口①①口 |----|
口口口口 |----|
口口口口 |----|

accuracy: 100%
最終更新:2023年10月12日 16:41