アットウィキロゴ
Freeway Shuffle
dj TAKA

ADVANCED

Level: 6
BPM: 145
Notes: 348

1
口口口口 |----|
口①②口 |----|
口①②口 |----|
口口口口 |①-②-|
2
①口口① |----|
口口口口 |----|
口口口口 |----|
口口口口 |①---|
3
口①口口 |①---|
③④⑤口 |②---|
口口口口 |③-④-|
口口口② |⑤---|
4
口口口① |①---|
口⑤④③ |②---|
口口口口 |③-④-|
口②口口 |⑤---|
5
①口口口 |①---|
口口口口 |②---|
③④⑤口 |③-④-|
口口②口 |⑤---|
6
口口①口 |①---|
口口口口 |②---|
口⑤④③ |③-④-|
②口口口 |⑤---|
7
口口②口 |①---|
③④⑤口 |②---|
口口口口 |③-④-|
①口口口 |⑤---|
8
②口口口 |①---|
口⑤④③ |②---|
口口口口 |③-④-|
口口①口 |⑤---|
9
口口口② |①---|
口口口口 |②---|
③④⑤口 |③-④-|
口①口口 |⑤---|
10
口②口口 |①---|
口口口口 |②---|
口⑤④③ |③-④-|
口口口① |⑤---|
11
⑤口口口 |①---|
口④③② |②-③-|
口口口口 |④---|
①口口口 |⑤---|
12
口口口⑤ |①---|
②③④口 |②-③-|
口口口口 |④---|
口口①口 |⑤---|
13
口⑤口口 |①---|
口口口口 |②-③-|
口④③② |④---|
口①口口 |⑤---|
14
口口⑤口 |①---|
口口口口 |②-③-|
②③④口 |④---|
口口口① |⑤---|
15
口①口口 |①---|
⑤口口口 |②---|
④口口口 |③-④-|
③口口② |⑤---|
16
口口①口 |①---|
口口口⑤ |②---|
口口口④ |③-④-|
②口口③ |⑤---|
17
①②③口 |①-②-|
口⑥⑤④ |③---|
口口口口 |④-⑤-|
口口口口 |⑥---|
18
口⑥⑥口 |①-②-|
口⑤⑤口 |③-④-|
④口口③ |⑤---|
②口口① |⑥---|
19
①口口口 |①---|
③④⑤口 |②---|
口口口口 |③-④-|
口口②口 |⑤---|
20
⑤④口⑤ |①-②-|
口③口口 |③-④-|
口②口口 |----|
口①口口 |⑤---|
21
口②口口 |①---|
口口口口 |②---|
口⑤④③ |③-④-|
口口口① |⑤---|
22
口口①口 |①-②-|
⑤口②⑤ |③-④-|
口口③口 |----|
口口④口 |⑤---|
23
口⑤⑤口 |①-②-|
口口口口 |③-④-|
①②③④ |----|
口口口口 |⑤---|
24
口口口口 |①-②-|
⑤⑥⑦⑧ |③-④-|
④③②① |⑤-⑥-|
口口口口 |⑦-⑧-|
25
①①②② |①---|
口口口口 |②---|
③③④④ |③---|
口口口口 |④---|
26
口⑦口口 |①-②-|
口⑤⑥口 |③-④-|
口③④口 |⑤-⑥-|
口①②口 |⑦---|
27
口口口① |①---|
口⑤④③ |②---|
口口口口 |③-④-|
口②口口 |⑤---|
28
⑤口④⑤ |①-②-|
口口③口 |③-④-|
口口②口 |----|
口口①口 |⑤---|
29
口口②口 |①---|
口口口口 |②---|
③④⑤口 |③-④-|
①口口口 |⑤---|
30
口①口口 |①-②-|
⑤②口⑤ |③-④-|
口③口口 |----|
口④口口 |⑤---|
31
口⑤⑤口 |①-②-|
口口口口 |③-④-|
④③②① |----|
口口口口 |⑤---|
32
口口口口 |①-②-|
⑧⑦⑥⑤ |③-④-|
①②③④ |⑤-⑥-|
口口口口 |⑦-⑧-|
33
②②①① |①---|
口口口口 |②---|
④④③③ |③---|
口口口口 |④---|
34
口口⑦口 |①-②-|
口⑥⑤口 |③-④-|
口④③口 |⑤-⑥-|
口②①口 |⑦---|
35
口口口口 |①-②-|
口口口口 |③---|
口⑥⑤④ |④-⑤-|
①②③口 |⑥---|
36
口②③口 |①-②-|
①⑤⑤④ |③-④-|
口⑤⑤口 |----|
口口口口 |⑤---|
37
口口口口 |①-②-|
口口口口 |③---|
口⑥⑤④ |④-⑤-|
①②③口 |⑥---|
38
口②①口 |①-②-|
口④③口 |③-④-|
口⑥⑤口 |⑤-⑥-|
口口⑦口 |⑦---|
39
口②③口 |①-②-|
①⑤⑤④ |③-④-|
口⑤⑤口 |----|
口口口口 |⑤---|
40
口口口口 |①-②-|
口⑤⑤口 |③-④-|
④⑤⑤① |----|
口③②口 |⑤---|
41
⑧口口⑦ |①-②-|
⑥口口⑤ |③-④-|
④口口③ |⑤-⑥-|
②口口① |⑦-⑧-|
42
口口口口 |①---|
口口口口 |----|
口②②口 |②---|
口①①口 |----|
43
①①①① |①---|
口口口口 |----|
口口口口 |②---|
口口②口 |----|
44
口口口口 |①---|
口口②口 |----|
口①口口 |②---|
口口口口 |----|
45
①口口口 |①---|
口口口口 |----|
口口口口 |----|
口口口① |----|
46
口口口口 |①-②-|
④③②① |③-④-|
⑧⑦⑥⑤ |⑤-⑥-|
口口口口 |⑦-⑧-|
47
口口口口 |①---|
口口口口 |----|
口口口口 |----|
口口①口 |----|
48
口①口口 |①---|
口⑤④③ |--②-|
口口口口 |--③-|
②口口口 |④-⑤-|
49
口口口口 |①---|
①②②口 |----|
口②②口 |②---|
口口口口 |----|
50
⑤②③⑤ |①-②-|
①口口④ |③-④-|
口口口口 |----|
口口口口 |⑤---|
51
口口口口 |①-②-|
口口口口 |③---|
口⑥⑤④ |④-⑤-|
①②③口 |⑥---|
52
口②③口 |①-②-|
①⑤⑤④ |③-④-|
口⑤⑤口 |----|
口口口口 |⑤---|
53
口口口口 |①-②-|
口口口口 |③---|
口⑥⑤④ |④-⑤-|
①②③口 |⑥---|
54
口②①口 |①-②-|
口④③口 |③-④-|
口⑥⑤口 |⑤-⑥-|
口口⑦口 |⑦---|
55
口②③口 |①-②-|
①⑤⑤④ |③-④-|
口⑤⑤口 |----|
口口口口 |⑤---|
56
口口口口 |①-②-|
口⑤⑤口 |③-④-|
④⑤⑤① |----|
口③②口 |⑤---|
57
⑧口口⑦ |①-②-|
⑥口口⑤ |③-④-|
④口口③ |⑤-⑥-|
②口口① |⑦-⑧-|
58
口口口口 |①---|
口①①口 |----|
口①①口 |----|
口口口口 |----|
59
①口口① |①---|
口口口口 |----|
①口口① |----|
口口口口 |----|
60
口口口口 |①---|
口口口口 |----|
口口口口 |----|
①①①① |----|
61
口①①口 |①---|
①口口① |----|
口口口口 |----|
口口口口 |----|

accuracy: 100%
最終更新:2023年10月12日 16:46