アットウィキロゴ
Freeway Shuffle
dj TAKA

EXTREME

Level: 9.2
BPM: 145
Notes: 630

1
口口口口 |----|
②②②② |----|
①①①① |----|
口口口口 |①-②-|
2
①口口① |----|
口①①口 |----|
①口口① |----|
口口口口 |①---|
3
口口①口 |①-②③|
口口口④ |-④-⑤|
口①口口
口②③⑤

口口口口
口口⑥口
⑦口口⑧ |-⑥-⑦|
口⑨口口 |⑧-⑨-|
4
口①口④ |①-②③|
口口口① |-④-⑤|
口②③⑤
口口口口

口口⑥口
⑦口口⑧
口口口口 |-⑥-⑦|
口⑨口口 |⑧-⑨-|
5
口口口口 |①-②③|
口①④口 |-④-⑤|
口口⑤口
②口①③

口口口⑥
口口口口
⑦口口⑧ |-⑥-⑦|
⑨口口口 |⑧-⑨-|
6
①口⑥口 |①-②③|
口口①④ |-④-⑤|
口口口⑤ |-⑥-⑦|
⑦②③⑧ |⑧---|
7
①口口① |①-②③|
④口口口 |-④-⑤|
口①①口
⑤③②口

口口口口
口⑥口口
⑧口口⑦ |-⑥-⑦|
口口⑨口 |⑧-⑨-|
8
④口①口 |①-②③|
①口口口 |-④-⑤|
⑤③②口
口口口口

口⑥口口
⑧口口⑦
口口口口 |-⑥-⑦|
口口⑨口 |⑧-⑨-|
9
口口口口 |①-②③|
口④①口 |-④-⑤|
口⑤口口
③①口②

⑥口口口
口口口口
⑧口口⑦ |-⑥-⑦|
口口口⑨ |⑧-⑨-|
10
口⑥口① |①-②③|
④①口口 |-④-⑤|
⑤口口口 |-⑥-⑦|
⑧③②⑦ |⑧---|
11
口⑥⑤④ |①②-③|
①⑧⑨② |-④⑤⑥|
口③口⑦ |-⑦-⑧|
口口⑩口 |⑨-⑩-|
12
④⑤⑥口 |①②-③|
②⑨⑧① |-④⑤⑥|
⑦口③口 |-⑦-⑧|
口⑩口口 |⑨-⑩-|
13
口①①口 |-①-②|
口⑤④③ |-③④⑤|
⑦②口⑧ |-⑥-⑦|
口⑨口⑥ |⑧-⑨-|
14
口①口④ |①-②③|
口口口① |-④-⑤|
口②③⑤
口口口口

口口⑥口
⑦口口⑧
口口口口 |-⑥-⑦|
口口⑧口 |⑧---|
15
①口⑤① |①-②③|
口①①口 |-④-⑤|
③口④口
②口口口

口⑧口口
口⑦口口
口口口⑥ |-⑥-⑦|
口口口⑨ |⑧-⑨-|
16
⑤口口⑧ |①-②③|
①口口⑦ |-④-⑤|
④⑥③口 |-⑥-⑦|
⑨①②口 |⑧-⑨-|
17
口口⑤口 |①-②③|
口口①口 |-④-⑤|
②③口口
口口④①

⑦⑧口口
口口口口
口口口⑥ |-⑥-⑦|
口口口⑨ |⑧-⑨-|
18
④④口口 |①-②-|
③③口口 |③-④-|
②②口口
①①口口

口口口⑤
口口⑥口
口口口⑦ |⑤⑥⑦-|
⑧口⑨口 |⑧-⑨-|
19
①①①口 |①-②③|
口⑤④口 |④⑤⑥⑦|
③⑦⑥口
口口口②

口口口⑧
口口⑫⑨
口口口⑩ |⑧-⑨-|
口⑪口口 |⑩-⑪⑫|
20
①③口口 |①②③-|
④口口⑧ |④-⑤-|
⑦⑤⑤口 |--⑥-|
口口②⑥ |⑦-⑧-|
21
⑩口②口 |①-②③|
口⑤④⑧ |④⑤⑥⑦|
⑪⑦⑥口 |⑧-⑨-|
③①①⑨ |⑩-⑪-|
22
口口⑨① |①②③④|
⑧口②口 |⑤-⑥-|
口③⑦⑤ |--⑦-|
④⑥⑥口 |⑧-⑨-|
23
②口口③ |①-②-|
口②③口 |③-④-|
①口口④
口①④口

口口口⑦
口口口口
口口⑤口 |--⑤-|
口⑥口口 |⑥-⑦-|
24
口②③口 |①-②-|
②口口③ |③-④-|
口①④口
①口口④

⑤口口⑤
口口⑧口
口⑦口口 |⑤-⑥-|
口口⑥口 |⑦-⑧-|
25
口④口口 |①②③-|
①②口口 |④-⑤⑥|
口口⑥⑤
口口口③

⑦口口口
口口口⑧
⑨口口口 |⑦-⑧-|
口口口⑩ |⑨-⑩-|
26
口①①④ |①-②-|
⑧③口⑨ |③-④-|
⑤⑥口② |⑤⑥⑦-|
口口⑦口 |⑧-⑨-|
27
①①①口 |①-②③|
口⑤④口 |④⑤⑥⑦|
③⑦⑥口
口口口②

口口口⑧
口口⑫⑨
口口口⑩ |⑧-⑨-|
口⑪口口 |⑩-⑪⑫|
28
①③口口 |①②③-|
④口口⑧ |④-⑤-|
⑦⑤⑤口 |--⑥-|
口口②⑥ |⑦-⑧-|
29
⑩口②口 |①-②③|
口⑤④⑧ |④⑤⑥⑦|
⑪⑦⑥口 |⑧-⑨-|
③①①⑨ |⑩-⑪-|
30
口口⑨① |①②③④|
⑧口②口 |⑤-⑥-|
口③⑦⑤ |--⑦-|
④⑥⑥口 |⑧-⑨-|
31
②口口③ |①-②-|
口②③口 |③-④-|
①口口④
口①④口

口口口⑦
口口口口
口口⑤口 |--⑤-|
口⑥口口 |⑥-⑦-|
32
口②③口 |①-②-|
②口口③ |③-④-|
口①④口
①口口④

⑤口口⑤
口口⑧口
口⑦口口 |⑤-⑥-|
口口⑥口 |⑦-⑧-|
33
口④口口 |①②③-|
①②口口 |④-⑤⑥|
口口⑥⑤
口口口③

⑦口口口
口口口⑧
⑨口口口 |⑦-⑧-|
口口口⑩ |⑨-⑩-|
34
口①①④ |①-②-|
⑧③口⑨ |③-④-|
⑤⑥口② |⑤⑥⑦-|
口口⑦口 |⑧-⑨-|
35
口①②⑥ |①②③④|
口③④口 |⑤-⑥-|
口⑤口口
口口口口

口口⑨口
⑧口口口
口⑩⑪口 |⑦-⑧-|
口⑦口口 |⑨-⑩⑪|
36
①①⑤③ |①-②-|
口⑥③口 |③-④-|
④口⑦口 |--⑤-|
口④②② |⑥-⑦-|
37
②⑥口① |①②③④|
④口口③ |⑤-⑥-|
口口口⑤
口口口口

口口⑧口
口口口⑫
口⑩⑪口 |⑦-⑧-|
⑨⑦口口 |⑨⑩⑪⑫|
38
⑦口⑥④ |①②③④|
口②③口 |⑤-⑥⑦|
①口口口
口⑤口口

口口口口
口⑪⑬⑩
口⑨⑧口 |⑧⑨⑩⑪|
口口⑫口 |⑫-⑬-|
39
口②③口 |①-②-|
②口口③ |③-④-|
①口口④
口①④口

口口口⑤
口口口⑦
口口口口 |--⑤-|
口⑥口口 |⑥-⑦-|
40
②⑤⑥③ |①-②-|
⑤②③⑥ |③-④-|
⑦①④口 |--⑤-|
①⑦口④ |⑥-⑦-|
41
⑧⑭⑬① |①②③④|
⑫④⑤⑨ |⑤⑥⑦⑧|
⑯⑥⑪⑦ |⑨⑩⑪⑫|
②⑩③⑮ |⑬⑭⑮⑯|
42
口口口口 |①---|
口②②口 |----|
口②口① |②---|
口口①口 |----|
43
③①①口 |①---|
①口口口 |②---|
①口②口 |③---|
口口口口 |----|
44
口②口口 |①---|
口口口① |----|
②口口口 |②---|
口口①口 |----|
45
口②③口 |①---|
口①①口 |----|
口①①口 |----|
口口口口 |----②③|
46
口⑦口① |①-②-|
③口⑤口 |③-④-|
口⑧口② |⑤-⑥-|
④口⑥口 |⑦-⑧-|
47
口口①① |①-②-|
口④口口 |③-④-|
③口口口
口②口口

口口⑤⑤
口口口口
口口口口 |--⑤-|
口口口口 |----|
48
①①口口 |①-②-|
④④⑤④ |③-④-|
口⑥③口 |--⑤-|
口口⑦② |⑥-⑦-|
49
口⑨⑥口 |①---|
口⑤②口 |----|
⑦口④口 |②③④⑤|
①③⑧① |⑥⑦⑧⑨|
50
⑧口⑤⑧ |①-②③|
②口口① |④-⑤-|
口③⑦口 |⑥-⑦-|
④⑥口口 |⑧---|
51
口①②⑥ |①②③④|
口③④口 |⑤-⑥-|
口⑤口口
口口口口

口口⑨口
⑧口口口
口⑩⑪口 |⑦-⑧-|
口⑦口口 |⑨-⑩⑪|
52
①①⑤③ |①-②-|
口⑥③口 |③-④-|
④口⑦口 |--⑤-|
口④②② |⑥-⑦-|
53
②⑥口① |①②③④|
④口口③ |⑤-⑥-|
口口口⑤
口口口口

口口⑧口
口口口⑫
口⑩⑪口 |⑦-⑧-|
⑨⑦口口 |⑨⑩⑪⑫|
54
⑦口⑥④ |①②③④|
口②③口 |⑤-⑥⑦|
①口口口
口⑤口口

口口口口
口⑪⑬⑩
口⑨⑧口 |⑧⑨⑩⑪|
口口⑫口 |⑫-⑬-|
55
口②③口 |①-②-|
②口口③ |③-④-|
①口口④
口①④口

口口口⑤
口口口⑦
口口口口 |--⑤-|
口⑥口口 |⑥-⑦-|
56
②⑤⑥③ |①-②-|
⑤②③⑥ |③-④-|
⑦①④口 |--⑤-|
①⑦口④ |⑥-⑦-|
57
⑧⑭⑬① |①②③④|
⑫④⑤⑨ |⑤⑥⑦⑧|
⑯⑥⑪⑦ |⑨⑩⑪⑫|
②⑩③⑮ |⑬⑭⑮⑯|
58
口口口① |①---|
口口①口 |②---|
⑥⑤④③ |③-④-|
②口口口 |⑤-⑥-|
59
口口口口 |①②③④|
④口③⑦ |⑤⑥⑦⑧|
口⑧⑤口
⑥②口①

⑭⑬⑫⑪
口⑩口口
口口⑮口 |⑨⑩⑪⑫|
口口⑨口 |⑬⑭⑮-|
60
口口口口 |①---|
①口口① |----|
口口口口 |----|
①口口① |----|
61
①①①① |①---|
①口口① |----|
口口口口 |----|
口口口口 |----|

accuracy: 100%
最終更新:2023年10月12日 16:58