アットウィキロゴ
La libertad
Cheryl Horrocks

BASIC

Level: 3
BPM: 170
Notes: 222

1
口口口口 |----|
口口口口 |----|
口口口口 |----|
口口口口 |----|
2
口口口口 |----|
口口口口 |----|
口口口口 |----|
口口口口 |----|
3
口口口口 |----|
口口口口 |----|
口口口口 |----|
口口口口 |----|
4
口口口口 |----|
口口口口 |----|
口口口口 |----|
口口口口 |----|
5
口口口口 |----|
口口口口 |----|
口口口口 |----|
口口口口 |----|
6
口②②口 |①---|
口口口口 |----|
口①①口 |②---|
口口口口 |----|
7
①口口① |①---|
口口口口 |----|
②口口② |②---|
口口口口 |----|
8
口①①口 |①---|
口口口口 |----|
口口口口 |----|
口口口口 |----|
9
口口口口 |①---|
②口口② |----|
口口口口 |②---|
口①①口 |----|
10
口口口口 |①---|
口口口口 |----|
①口口② |②---|
①口口② |----|
11
口口口口 |①---|
①口口② |----|
①口口② |②---|
口口口口 |----|
12
①口口② |①---|
①口口② |----|
口口口口 |②---|
口口口口 |----|
13
口①①口 |①---|
口口口口 |----|
口口口口 |----|
口口口口 |----|
14
口口口口 |①---|
口口口口 |----|
②口口① |②---|
②口口① |----|
15
口口口口 |①---|
②口口① |----|
②口口① |②---|
口口口口 |----|
16
①口口① |①---|
口口口口 |----|
口②②口 |②---|
口口口口 |----|
17
口口口口 |①---|
口③②① |②---|
口口口口 |③---|
口口口口 |----|
18
口口口口 |①---|
口口口口 |----|
口口②口 |②---|
口①口口 |----|
19
口口②口 |①---|
口①口口 |----|
口口口口 |②---|
口口口口 |----|
20
①口口口 |①---|
②口口口 |----|
口口口口 |②---|
口口口口 |----|
21
口口口口 |①---|
口口口口 |----|
①口口口 |②---|
②口口口 |----|
22
口口口口 |①---|
口口口口 |----|
口②口口 |②---|
口口①口 |----|
23
口②口口 |①---|
口口①口 |----|
口口口口 |②---|
口口口口 |----|
24
口口口① |①---|
口口口② |----|
口口口口 |②---|
口口口口 |----|
25
口口口口 |①---|
口口口口 |----|
口口口① |②---|
口口口② |----|
26
口口口口 |①---|
②口口口 |----|
口口口口 |----|
口①①口 |②---|
27
①口口口 |①---|
口口口② |----|
口口口口 |----|
口口口口 |②---|
28
口口口① |①---|
口口口口 |----|
口②②口 |②---|
口口口口 |----|
29
口口口口 |----|
口口口口 |----|
口口口口 |----|
口口口口 |----|
30
口口口口 |----|
口口②口 |①---|
口口口口 |----|
①口口① |②---|
31
口口①口 |①---|
口②口口 |----|
口口口口 |----|
口口口口 |②---|
32
口①口口 |①---|
口口口口 |----|
口口口② |----|
口口口口 |②---|
33
口口口口 |①---|
口口口口 |②---|
③②①口 |③---|
口口口口 |----|
34
口①①口 |①---|
口②②口 |----|
口口口口 |②---|
口口口口 |----|
35
口口口口 |①---|
口口③口 |----|
口①①口 |②---|
口②口口 |③---|
36
①口口① |①---|
②口口② |----|
口口口口 |②---|
口口口口 |----|
37
口口口口 |①---|
口③口口 |----|
①口口① |②---|
口口②口 |③---|
38
口①①口 |①---|
口②②口 |----|
口口口口 |②---|
口口口口 |----|
39
口口口口 |①---|
口口③口 |----|
口①①口 |②---|
口②口口 |③---|
40
①②③④ |①---|
口口口口 |②---|
口口口口 |③---|
口口口口 |④---|
41
口口口口 |①---|
口①①口 |②---|
口②②口 |③---|
口③③口 |----|
42
口口口口 |①---|
②口口口 |----|
①口口口 |②---|
口口口口 |----|
43
口口口口 |①---|
口口口② |----|
口口口① |②---|
口口口口 |----|
44
口口口口 |①---|
口①口口 |----|
口②口口 |②---|
口口口口 |----|
45
口口口口 |①---|
口口①口 |----|
口口②口 |②---|
口口口口 |----|
46
口口口口 |①---|
②口口口 |----|
口口口口 |②---|
①口①口 |----|
47
口口口口 |①---|
口口口② |----|
口口口口 |②---|
口①口① |----|
48
口口口口 |①---|
口①②口 |②---|
口③④口 |③---|
口口口口 |④---|
49
①口口① |①---|
口口口口 |----|
口口口② |----|
口口口② |②---|
50
口口口口 |①---|
口口口② |----|
①口口② |----|
①口口口 |②---|
51
口②②口 |①---|
①口口口 |----|
①口口口 |②---|
口口口口 |----|
52
口口口口 |①---|
口口口② |----|
口口口② |②---|
口①①口 |----|
53
口①口口 |①---|
口口②口 |②---|
口③口口 |③---|
口口④口 |④---|
54
口口口口 |①---|
口口口口 |----|
口口口口 |----|
口①口口 |----|
55
口口口口 |①---|
口口②口 |----|
口口①口 |②---|
口口口口 |----|
56
口口口口 |①---|
口②口口 |----|
口①口口 |②---|
口口口口 |----|
57
口口口口 |①---|
口口口口 |----|
口②①口 |②---|
口口口口 |----|
58
①口口① |①---|
②口口② |②---|
③口口③ |③---|
④口口④ |④---|
59
口口口口 |①---|
①②③口 |②---|
口口口口 |③---|
口口口口 |----|
60
口③②① |①---|
口口口口 |②---|
口口口口 |③---|
口口口口 |----|
61
口口口口 |①---|
口④③口 |②---|
口②①口 |③---|
口口口口 |④---|
62
①口口① |①---|
②口口② |②---|
③口口③ |③---|
口口口口 |----|
63
口口口口 |①---|
③口口口 |②---|
口口②口 |③---|
口①口口 |----|
64
口口口口 |①---|
口口口③ |②---|
口②口口 |③---|
口口①口 |----|
65
口①口口 |①---|
口口②口 |②---|
口③口口 |③---|
口口④口 |④---|
66
④口口④ |①---|
③口口③ |②---|
②口口② |③---|
①口口① |④---|
67
口口口口 |①---|
口②①口 |②---|
口④③口 |③---|
口口口口 |④---|
68
口口口④ |①---|
口口口③ |②---|
口口口② |③---|
口口口① |④---|
69
口口口口 |①---|
口口口口 |②---|
①口口② |----|
口口口口 |----|
70
口口口口 |①---|
口①①口 |----|
口口口口 |----|
口口口口 |----|
71
①口口① |①---|
口口口口 |----|
口口口口 |----|
口口口口 |----|
72
口口口口 |①---|
口口口口 |----|
②口口② |②---|
口①①口 |----|
73
②②②② |①---|
①口口① |----|
口口口口 |②---|
口口口口 |----|

accuracy: 100%
最終更新:2023年10月20日 19:16