アットウィキロゴ
La libertad
Cheryl Horrocks

ADVANCED

Level: 6
BPM: 170
Notes: 340

1
口口口口 |----|
口口口口 |----|
口口口口 |----|
口口口口 |----|
2
口①②口 |--①-|
口③④口 |--②-|
口口口口 |--③-|
口口口口 |--④-|
3
口口口口 |--①-|
口口口口 |--②-|
口①②口 |--③-|
口③④口 |--④-|
4
口口口口 |--①-|
口口口口 |--②-|
③口口④ |--③-|
①口口② |--④-|
5
口口口口 |--①-|
①口口② |--②-|
口口口口 |----|
口口口口 |----|
6
口①①口 |①---|
口②②口 |----|
口口口口 |②---|
口口口口 |----|
7
口口口口 |①---|
口口口口 |----|
口①①口 |②---|
口②②口 |----|
8
口口②口 |①---|
①③口① |----|
口口口口 |----|
口口口口 |②-③-|
9
口口口口 |①---|
口口①口 |----|
口口口口 |②---|
口②②口 |----|
10
口口口口 |①-②-|
②口口④ |----|
①口口③ |③-④-|
口口口口 |----|
11
口②④口 |①-②-|
口①③口 |----|
口口口口 |③-④-|
口口口口 |----|
12
口口口口 |①-②-|
①口口③ |----|
②口口④ |③-④-|
口口口口 |----|
13
口口口口 |①---|
口①①口 |②---|
口②②口 |③---|
口③③口 |----|
14
口口口口 |①-②-|
②口口④ |----|
①⑤口③ |③-④-|
口口口口 |--⑤-|
15
口②⑤口 |①-②-|
口①④口 |--③-|
口口③口 |④-⑤-|
口口口口 |----|
16
①口口① |①---|
口口口口 |----|
口口口口 |②---|
②口口② |----|
17
口③③口 |①---|
口②②口 |②---|
口①①口 |③---|
口口口口 |----|
18
⑤口口口 |①---|
口③④口 |②---|
①口口口 |③-④-|
口口②口 |--⑤-|
19
口②③口 |----|
口口口口 |①---|
口口口口 |②-③-|
口口口① |----|
20
口⑤口口 |----|
①②③④ |①-②-|
口口口口 |③-④-|
口口口口 |--⑤-|
21
口口口口 |----|
口口口口 |①---|
口②口① |②---|
口口③口 |③---|
22
口口口④ |----|
口③②口 |①---|
口口口① |②-③-|
口口口口 |--④-|
23
口③②口 |----|
口口口口 |①---|
口口口口 |②-③-|
①口口口 |----|
24
⑤口口⑤ |----|
口③④口 |①-②-|
口①②口 |③-④-|
口口口口 |--⑤-|
25
口口①口 |----|
口②口口 |①---|
口口③口 |②---|
口口口口 |③---|
26
口口口口 |①---|
口口口口 |----|
口口②② |----|
口①口口 |②---|
27
②②口口 |①---|
口口①① |----|
口口口口 |----|
口口口口 |②---|
28
口口口口 |①---|
①①口口 |----|
口口口口 |②---|
口②②口 |----|
29
②口口口 |①---|
①③口① |----|
口口口口 |②---|
口口口口 |③---|
30
口②②口 |①---|
口口口口 |②---|
口口①口 |----|
口口③③ |③---|
31
②②口口 |①---|
口口①① |----|
口口口口 |----|
口口口口 |②---|
32
口口口口 |①---|
口②口口 |----|
①①②口 |----|
口口口口 |②---|
33
①①口口 |①---|
口口②② |②---|
③③口口 |③---|
口口④④ |④---|
34
①口口② |①-②-|
③口口④ |----|
口口口口 |③-④-|
口口口口 |----|
35
口口口口 |①-②-|
口③口口 |----|
①口④② |③-④-|
口⑤口口 |⑤---|
36
②口口① |①-②-|
④口口③ |----|
口口口口 |③-④-|
口口口口 |----|
37
口口⑤口 |①-②-|
口④口口 |----|
②口③① |③-④-|
口口口口 |⑤---|
38
①口口② |①-②-|
③口口④ |----|
口口口口 |③-④-|
口口口口 |----|
39
口口口口 |①-②-|
口③口口 |----|
①口④② |③-④-|
口⑤口口 |⑤---|
40
口⑧⑦口 |①-②-|
口⑥⑤口 |③-④-|
④口口③ |⑤-⑥-|
②口口① |⑦-⑧-|
41
①口口① |①---|
②口口② |②---|
③口口③ |③---|
口口口口 |----|
42
⑤口④口 |----|
口口③口 |①-②-|
口②口口 |③-④-|
口①口口 |--⑤-|
43
口口口口 |----|
口口口① |①---|
口口②口 |②---|
口③口口 |③---|
44
口④口⑤ |----|
口③口口 |①-②-|
口口②口 |③-④-|
口口①口 |--⑤-|
45
口口口口 |----|
口口③口 |①---|
口②口口 |②---|
口口①口 |③---|
46
②口口③ |①---|
口口口口 |--②-|
口口口口 |③---|
口①口口 |----|
47
口口口口 |①---|
②口口③ |--②-|
口口口口 |③---|
口④①口 |④---|
48
口口①口 |①---|
口口③口 |②---|
口②口口 |③---|
口④口口 |④---|
49
口口口口 |①---|
②②口口 |----|
口口①① |----|
口口口口 |②---|
50
口口口口 |①---|
口口口口 |----|
②③④口 |--②-|
①①口口 |③-④-|
51
②口口② |①---|
口口口口 |----|
口口口① |②---|
口口口口 |----|
52
口口口口 |①---|
口②②口 |----|
口口口口 |②---|
口①①口 |----|
53
④口口④ |①---|
③口口③ |②---|
②口口② |③---|
①口口① |④---|
54
口口口口 |①---|
口①①口 |----|
口①①口 |----|
口口口口 |----|
55
①②③④ |--①-|
口口口口 |--②-|
口口口口 |--③-|
口口口口 |--④-|
56
口口口口 |--①-|
④③②① |--②-|
口口口口 |--③-|
口口口口 |--④-|
57
口口口口 |--①-|
口口口口 |--②-|
①②③④ |--③-|
口口口口 |--④-|
58
口①①口 |①---|
口②②口 |②---|
口③③口 |③---|
口④④口 |④---|
59
口口口口 |--①-|
①②③④ |②-③-|
⑤口口口 |④-⑤-|
口口口口 |----|
60
口口①① |①---|
②②口口 |②---|
口口③③ |③---|
④④口口 |④---|
61
⑦口口口 |--①-|
口③④口 |②-③-|
⑤①②⑥ |④-⑤-|
口口口口 |⑥-⑦-|
62
口③③① |①---|
口口口口 |②---|
口口口口 |③---|
口②②口 |----|
63
口④口① |--①-|
口口②口 |②-③-|
口③口⑤ |④-⑤-|
口口口口 |----|
64
①口④口 |--①-|
口②口口 |②-③-|
⑤口③口 |④-⑤-|
口口口口 |----|
65
口②口① |--①-|
④口③口 |②-③-|
口⑥口⑤ |④-⑤-|
口口⑦口 |⑥-⑦-|
66
④④口口 |①---|
口口②② |②---|
口口口口 |③---|
①口口③ |④---|
67
口口口口 |--①-|
①⑤③口 |②-③-|
口②口口 |--④-|
口口口④ |--⑤-|
68
④④①口 |①---|
口口口口 |②---|
③③②② |③---|
口口口口 |④---|
69
口口口口 |①---|
①⑤口② |②---|
口③④口 |--③-|
①口口② |④-⑤-|
70
口口口口 |①---|
口口①口 |----|
②口口② |----|
口口口口 |--②-|
71
口口口口 |①---|
①口口① |----|
口③口口 |②---|
口口②口 |③---|
72
口①①口 |①---|
④⑤⑤口 |②---|
口口口③ |③---|
②口口口 |④-⑤-|
73
③①①③ |①---|
口口口口 |②---|
③口口③ |③---|
口②②口 |----|

accuracy: 100%
最終更新:2023年10月20日 19:22