アットウィキロゴ
La libertad
Cheryl Horrocks

EXTREME

Level: 9.6
BPM: 170
Notes: 629

1
口口口口 |----|
口口口口 |----|
口口口口 |----|
口口口口 |----|
2
②③⑤④ |①-②-|
口口口口 |--③-|
①口口口 |--④-|
口口口口 |--⑤-|
3
口口口口 |--①-|
①②⑥③ |--②-|
口⑤口口 |--③-|
口口④口 |④⑤⑥-|
4
③口口⑥ |①-②-|
①⑧口口 |③④-⑤|
⑤口⑨④ |⑥-⑦-|
口⑦口② |⑧-⑨-|
5
③口①⑤ |①-②-|
口⑩⑪口 |③-④-|
口⑧⑨口 |⑤-⑥⑦|
②⑥⑦④ |⑧⑨⑩⑪|
6
①①②② |①---|
①口口② |----|
口口口口 |②---|
口口口口 |----|
7
口口口口 |①---|
③④⑤⑥ |----|
①口口② |②---|
①①②② |③④⑤⑥|
8
①①口口 |①---|
口③④口 |----|
口⑤⑥② |--②-|
口口②口 |③④⑤⑥|
9
口④③② |①---|
口口口口 |--②③|
口口口口 |④---|
⑤①口⑤ |⑤---|
10
②口口④ |①-②-|
口②口口 |----|
①⑥口③ |③-④-|
⑤①口口 |--⑤⑥|
11
②②⑥⑥ |①-②-|
①⑦口⑤ |--③④|
⑧口④口 |⑤-⑥-|
口口口③ |--⑦⑧|
12
口②⑥口 |①-②-|
②口③⑥ |--③④|
口口口④ |⑤-⑥-|
⑦①⑤口 |--⑦-|
13
口口口口 |①---|
①③②口 |②③④⑤|
口⑤④口 |⑥---|
⑦口⑥口 |⑦---|
14
②口口④ |①-②-|
口②口口 |----|
①⑥口③ |③-④-|
⑤①口口 |--⑤⑥|
15
②②⑥⑥ |①-②-|
①口口⑤ |--③④|
口口④⑧ |⑤-⑥-|
⑦口口③ |--⑦⑧|
16
口口⑧口 |①---|
①⑦口② |--②③|
③口⑥口 |④---|
口⑤口④ |⑤⑥⑦⑧|
17
①③口① |①---|
③口②口 |②---|
口②口③ |③---|
口口③口 |----|
18
⑤⑤口口 |----|
口口口④ |①-②-|
口②③口 |③-④-|
①口口口 |--⑤-|
19
口口③口 |----|
口②口口 |①---|
口口口口 |②-③-|
口口①口 |----|
20
口口⑤口 |----|
④口口⑤ |①-②-|
口③②口 |③-④-|
口口口① |--⑤-|
21
②口口口 |----|
口口口口 |①---|
口口口口 |②---|
口①③口 |③---|
22
口⑤④口 |----|
⑤②口③ |①-②-|
①口口口 |③-④-|
口口口口 |--⑤-|
23
②口口③ |----|
口口口口 |①---|
口②③口 |②-③-|
口①①口 |----|
24
⑤⑤④口 |----|
②③口口 |①-②-|
①口口口 |③-④-|
口口口口 |--⑤-|
25
口口口① |----|
②口①口 |①---|
口②口③ |②---|
口口③口 |③---|
26
口①①口 |①---|
口①①口 |----|
口口口口 |----|
②②口口 |②---|
27
①口口② |①---|
①口②口 |----|
口口①口 |----|
口口口口 |②---|
28
口口口口 |①---|
口①口口 |----|
口①口① |②---|
②口口② |----|
29
②口④③ |①---|
②口⑥⑤ |②---|
口口口⑦ |③④⑤⑥|
⑧①①口 |⑦-⑧-|
30
口口口口 |①---|
③①口口 |②---|
②②②口 |----|
口③③口 |③---|
31
②①①② |①---|
口口口① |----|
口口口口 |----|
口口口口 |②---|
32
口②②口 |①---|
口①①口 |----|
口①①口 |----|
口口口口 |②---|
33
③口口① |①---|
口③①口 |②---|
口②④口 |③---|
②口口④ |④---|
34
口口口② |①-②-|
②④口口 |--③④|
③口口①
①口口口

⑤口口口
口口⑧口
口⑥⑥⑦ |⑤-⑥-|
口口口口 |--⑦⑧|
35
③④口① |①-②-|
⑤⑥口口 |③④⑤⑥|
⑦⑨⑨口 |⑦-⑧-|
⑧②②⑧ |⑨---|
36
口②②⑤ |①-②-|
口⑧④口 |--③④|
⑦⑥⑥③ |⑤-⑥-|
口①①口 |--⑦⑧|
37
①口④③ |①-②-|
口口⑥⑤ |③④⑤⑥|
口⑨⑨⑦ |⑦-⑧-|
⑧②②⑧ |⑨---|
38
①②口口 |①②③④|
③④⑦口 |⑤-⑥⑦|
⑤口口口
口口口⑥

口口口⑧
口⑪口口
口⑨⑨口 |⑧-⑨-|
⑩口口口 |--⑩⑪|
39
①口④③ |①-②-|
口口⑥⑤ |③④⑤⑥|
口⑨⑨⑦ |⑦-⑧-|
⑧②②⑧ |⑨---|
40
②⑨④③ |①-②-|
口②⑥⑤ |③④⑤⑥|
①口口⑦ |⑦-⑧-|
⑧①⑩口 |⑨-⑩-|
41
③⑥②口 |①---|
口①⑤③ |②---|
③④①口 |③-④-|
口②口③ |⑤-⑥-|
42
⑤⑤口④ |----|
口口③口 |①-②-|
②口口口 |③-④-|
口①口口 |--⑤-|
43
口口口口 |----|
口口口② |①---|
口口口口 |②---|
口③①口 |③---|
44
口④口口 |----|
③口⑤⑤ |①-②-|
口口②口 |③-④-|
口口口① |--⑤-|
45
口口口③ |----|
口②口口 |①---|
口口口口 |②---|
口口①口 |③---|
46
口②③口 |①---|
口口口口 |--②-|
口口口口 |③---|
①口口① |----|
47
②口口③ |①---|
口口口口 |--②-|
④口口口 |③---|
口①①口 |④---|
48
口①③口 |①---|
口口口口 |②---|
口口口口 |③---|
口④②口 |④---|
49
①②②① |①---|
②①①② |----|
①口口① |----|
口口口口 |②---|
50
口口口口 |①---|
口口口口 |----|
口①①口
①口口①

口口口口
口④口口
口口③口 |--②-|
口②口口 |③-④-|
51
口②①① |①---|
口口口① |--②-|
口口口口
口口口口

口口④口
口口口口
③口③口 |③---|
口③口口 |--④-|
52
②口口④ |①---|
口口③口 |--②-|
③①口① |③---|
口③①口 |--④-|
53
口④③口 |①---|
②①口③ |②---|
④③②① |③---|
②口①④ |④---|
54
口口口① |①---|
①口口口 |②③④⑤|
口⑤④①
①③②口

⑨口口口
⑧口⑥口
⑦口口口 |⑥-⑦-|
口口口口 |⑧-⑨-|
55
口口④① |--①-|
口口口③ |②-③-|
口口②⑤ |④-⑤-|
口口口口 |----|
56
①④口口 |--①-|
③口口口 |②-③-|
⑤②口口 |④-⑤-|
口口口口 |----|
57
口口④⑥ |--①-|
口口①③ |②-③-|
口口⑦⑤ |④-⑤-|
口口②口 |⑥-⑦-|
58
①②③④ |①---|
③④①② |②---|
②①④③ |③---|
④③②① |④---|
59
①④口口 |--①-|
④口③③ |②-③-|
①口口② |④-⑤-|
⑤⑤②口 |----|
60
口②②口 |①---|
②①③② |②---|
④③①④ |③---|
口④④口 |④---|
61
③①③① |--①-|
②⑥②⑥ |②-③-|
④口④口 |④-⑤-|
⑦⑤⑦⑤ |⑥-⑦-|
62
口①口① |①---|
②口②口 |②---|
口②口②
口口口口

④⑤⑥口
口③口③
口口口口 |③-④-|
口③口③ |⑤-⑥-|
63
口口口① |--①-|
②③口③ |②-③-|
①口②口
口口口口

⑤④口口
口口④口
⑧⑨口口 |④-⑤-|
⑥⑦口⑤ |⑥⑦⑧⑨|
64
④③口口 |①-②-|
①②口② |③-④-|
口口口③
口口④口

口口⑧⑦
口口⑩⑨
口口⑤口 |⑤-⑥-|
⑤⑥口⑥ |⑦⑧⑨⑩|
65
口②口口 |①-②-|
④口口口 |③-④-|
③口③①
口口②④

⑧口⑦⑤
口⑥口⑥
口⑦口⑧ |⑤-⑥-|
⑤口口口 |⑦-⑧-|
66
口①口口 |①---|
②口②口 |②---|
口口口口
口②①②

口④④③
口③口口
④口③④ |③---|
③口口口 |④---|
67
③口④③ |--①-|
①口①④ |②-③-|
口⑤口口 |--④-|
⑤②口② |--⑤-|
68
②口口口 |①---|
口口①口 |②---|
②口②口
口①口①

口④口④
④③④③
口口口口 |③---|
口口③口 |④---|
69
①口①口 |①---|
口④口④ |②---|
③①③② |--③-|
②⑤②⑤ |④-⑤-|
70
①口①口 |①-②③|
④⑧⑥口 |④-⑤-|
⑨③口⑨ |⑥-⑦-|
②⑦⑤口 |⑧-⑨-|
71
①⑤⑤① |①-②③|
口⑦⑦④ |④-⑤-|
口口③口 |⑥---|
口⑥⑥② |⑦---|
72
①口口① |①-②③|
④口口口 |④-⑤-|
①③口①
②口口⑤

⑧⑧口口
口口⑥⑥
口口口口 |⑥-⑦-|
口⑦⑨口 |⑧-⑨-|
73
③口口① |①---|
①②③② |②---|
②③②① |③---|
①④④③ |④---|

accuracy: 100%
最終更新:2023年10月20日 19:32