アットウィキロゴ
Pierce The Sky
JAKAZiD feat. K.N.

BASIC

Level: 4
BPM: 170
Notes: 217

1
口口口口 |----|
口口口口 |----|
口口口口 |----|
口口口口 |----|
2
①口口② |①---|
口口口口 |----|
口口口口 |②---|
口口口口 |----|
3
口口口口 |①---|
口①②口 |----|
口口口口 |②---|
口口口口 |----|
4
口口口口 |①---|
口口口口 |----|
口口口口 |②---|
①口口② |----|
5
口口口口 |①---|
口口口口 |----|
口①②口 |②---|
口口口口 |----|
6
口①口口 |①---|
口口口口 |----|
口口口口 |②---|
口②口口 |----|
7
口口①口 |①---|
口口口口 |----|
口口口口 |②---|
口口②口 |----|
8
口口口口 |①---|
口口口口 |②---|
①②③④ |③---|
口口口口 |④---|
9
口①①口 |①---|
口口口口 |----|
口口口口 |----|
口口口口 |----|
10
口口口口 |①---|
①口口口 |②---|
②口口口 |③---|
③口口口 |----|
11
口口口口 |①---|
口口口① |②---|
口口口② |③---|
口口口③ |----|
12
口口口口 |①---|
口①①口 |----|
口口口口 |②---|
口②②口 |----|
13
口口口口 |①---|
口口口口 |②---|
①②③口 |③---|
口口口口 |----|
14
口口口① |①---|
口口口② |②---|
口口口③ |③---|
口口口口 |----|
15
①口口口 |①---|
②口口口 |②---|
③口口口 |③---|
口口口口 |----|
16
口②②口 |①---|
口口口口 |----|
口口口口 |②---|
口①①口 |----|
17
口口口口 |①---|
④③②① |②---|
口口口口 |③---|
口口口口 |④---|
18
口口口口 |①---|
口口口③ |②---|
口口口② |③---|
口口口① |----|
19
口口口口 |①---|
③口口口 |②---|
②口口口 |③---|
①口口口 |----|
20
口①①口 |①---|
口口口口 |----|
口②②口 |②---|
口口口口 |----|
21
口口口口 |①---|
口③②① |②---|
口口口口 |③---|
口口口口 |----|
22
③口口口 |①---|
②口口口 |②---|
①口口口 |③---|
口口口口 |----|
23
口口口③ |①---|
口口口② |②---|
口口口① |③---|
口口口口 |----|
24
口口口口 |①---|
口①①口 |----|
口②②口 |②---|
口口口口 |----|
25
口口口口 |①---|
口口口口 |----|
口口口口 |----|
①①①① |----|
26
①口口口 |①---|
口②口口 |②---|
③口口口 |③---|
口口口口 |----|
27
口口口① |①---|
口口②口 |②---|
口口口③ |③---|
口口口口 |----|
28
口口口口 |①---|
①②③④ |②---|
口口口口 |③---|
口口口口 |④---|
29
口口口口 |①---|
口口口口 |----|
口口口口 |----|
口①①口 |----|
30
口口口① |①---|
口口②口 |--②-|
口口口口 |----|
口口口口 |----|
31
①口口口 |①---|
口②口口 |--②-|
口口口口 |----|
口口口口 |----|
32
口口口口 |①---|
口口口口 |②---|
④③②① |③---|
口口口口 |④---|
33
②口口② |①---|
口①①口 |----|
口口口口 |②---|
口口口口 |----|
34
口口口口 |①---|
③口口口 |②---|
口②口口 |③---|
①口口口 |----|
35
口口口口 |①---|
口口口③ |②---|
口口②口 |③---|
口口口① |----|
36
口口口口 |①---|
口口口口 |②---|
①②③④ |③---|
口口口口 |④---|
37
口①①口 |①---|
口口口口 |----|
口口口口 |----|
口口口口 |----|
38
口口口口 |①---|
④③口口 |②---|
①②口口 |③---|
口口口口 |④---|
39
口口口口 |①---|
口口③④ |②---|
口口②① |③---|
口口口口 |④---|
40
口①①口 |①---|
口口口口 |----|
口口口口 |----|
口口口口 |----|
41
口口口口 |①---|
①口口① |----|
①口口① |----|
口口口口 |----|
42
口口口口 |①---|
口①②口 |----|
口口口口 |②---|
口口口口 |----|
43
口口口口 |①---|
口口口口 |----|
口①②口 |②---|
口口口口 |----|
44
口口口口 |①---|
①口口② |----|
口口口口 |②---|
口口口口 |----|
45
口口口口 |①---|
口口口口 |----|
①口口② |②---|
口口口口 |----|
46
①②③口 |①---|
口口口口 |②---|
口口口口 |③---|
口口口口 |----|
47
口口口口 |①---|
口③②① |②---|
口口口口 |③---|
口口口口 |----|
48
口口口口 |①---|
口口口口 |②---|
③口口④ |③---|
①口口② |④---|
49
口口口口 |①---|
①口口口 |----|
口口口口 |----|
口口口口 |----|
50
口③②① |①---|
口口口口 |②---|
口口口口 |③---|
口口口口 |----|
51
口口口口 |①---|
口口口口 |②---|
口口口口 |③---|
①②③口 |----|
52
口口口口 |①---|
口③②① |②---|
口口口口 |③---|
口口口口 |----|
53
口口口口 |①---|
口口口口 |②---|
①②③口 |③---|
口口口口 |----|
54
口口口口 |①---|
口口口③ |②---|
口口口② |③---|
口口口① |----|
55
①口口口 |①---|
②口口口 |②---|
③口口口 |③---|
口口口口 |----|
56
口口口口 |①---|
口④③口 |②---|
口②①口 |③---|
口口口口 |④---|
57
①口口① |①---|
口口口口 |----|
口口口口 |----|
口口口口 |----|
58
口口口口 |①---|
①口口口 |②---|
②口口口 |③---|
③口口口 |----|
59
口口口口 |①---|
口口口① |②---|
口口口② |③---|
口口口③ |----|
60
口口口口 |①---|
口①①口 |----|
口口口口 |②---|
口②②口 |----|
61
口口口口 |①---|
口口口口 |②---|
①②③口 |③---|
口口口口 |----|
62
口口口① |①---|
口口口② |②---|
口口口③ |③---|
口口口口 |----|
63
①口口口 |①---|
②口口口 |②---|
③口口口 |③---|
口口口口 |----|
64
口②②口 |①---|
口口口口 |----|
口口口口 |②---|
口①①口 |----|
65
口口口口 |①---|
④③②① |②---|
口口口口 |③---|
口口口口 |④---|
66
口口口口 |①---|
口口口③ |②---|
口口口② |③---|
口口口① |----|
67
口口口口 |①---|
③口口口 |②---|
②口口口 |③---|
①口口口 |----|
68
口①①口 |①---|
口口口口 |----|
口②②口 |②---|
口口口口 |----|
69
口口口口 |①---|
口③②① |②---|
口口口口 |③---|
口口口口 |----|
70
口口口口 |①---|
口口口口 |----|
②口口② |②---|
①口口① |----|
71
②口口② |①---|
①口口① |----|
口口口口 |②---|
口口口口 |----|
72
口口口口 |①---|
口①①口 |----|
口①①口 |----|
口口口口 |----|

accuracy: 100%
最終更新:2023年08月12日 10:52