アットウィキロゴ
Pierce The Sky
JAKAZiD feat. K.N.

ADVANCED

Level: 6
BPM: 170
Notes: 347

1
口口口口 |----|
口口口口 |----|
口口口口 |----|
口口口口 |----|
2
②口口口 |①---|
口口③口 |----|
口①①口 |②---|
口口口口 |③---|
3
口口口② |①---|
口③口口 |----|
口口口口 |②---|
①①口口 |③---|
4
口②口口 |①---|
口口口③ |----|
口口口口 |②---|
口口①① |③---|
5
口口②口 |①---|
③口口口 |----|
①①口口 |②---|
口口口口 |③---|
6
口口口口 |①---|
④口口② |②---|
口口口口 |③---|
③口口① |④---|
7
口口口口 |①---|
口④②口 |②---|
口口口口 |③---|
口③①口 |④---|
8
②口口① |①-②-|
④口口③ |③-④-|
⑥口口⑤ |⑤-⑥-|
⑧口口⑦ |⑦-⑧-|
9
口口口口 |①---|
②③④⑤ |----|
口①①口 |②-③-|
口口口口 |④-⑤-|
10
口①①口 |----|
口口口口 |①---|
口③口口 |②---|
口口②口 |③---|
11
②口口口 |①---|
④④口口 |②---|
口口③③ |③---|
口口口① |④---|
12
口①①③ |----|
口口口口 |①---|
口口口口 |②---|
②口口口 |③---|
13
口口口口 |①---|
口口口口 |②---|
①②③④ |③---|
口口口口 |④---|
14
①口口④ |①---|
口③③口 |②---|
口口口口 |--③-|
口口②口 |--④-|
15
口口口口 |--①-|
④口口① |--②-|
④口口② |--③-|
口口口③ |--④-|
16
口口口口 |----|
口口口口 |----|
口②口口 |①---|
口口①口 |②---|
17
①口口① |①---|
②③④⑤ |----|
口口口口 |②-③-|
口口口口 |④-⑤-|
18
口①①口 |----|
口口口口 |①---|
口③口口 |②---|
口口②口 |③---|
19
②口口口 |①---|
④④口口 |②---|
口口③③ |③---|
口口口① |④---|
20
口①①③ |----|
口口口口 |①---|
口口口口 |②---|
②口口口 |③---|
21
口口口口 |①---|
口口口口 |②---|
①②③④ |③---|
口口口口 |④---|
22
①口口④ |①---|
口③③口 |②---|
口口口口 |--③-|
口口②口 |--④-|
23
口口口口 |--①-|
④口口① |--②-|
④口口② |--③-|
口口口③ |--④-|
24
口口①① |①---|
口口口口 |----|
口口口口 |②---|
②②口口 |----|
25
口口口口 |①---|
口①①口 |----|
口①①口 |----|
口口口口 |----|
26
③口口③ |①---|
②②口口 |②---|
①①口口 |③---|
口口口口 |----|
27
④④口口 |①---|
口口③口 |②-③-|
口②口口 |④---|
口口①① |----|
28
口⑥⑥口 |①-②-|
①口口② |③-④-|
③口口④ |⑤---|
口⑤⑤口 |⑥---|
29
口口口口 |①---|
①口口① |----|
口口口口 |----|
口口口口 |----|
30
①①口口 |①---|
口口口口 |--②-|
口口②② |----|
口口口口 |----|
31
口口①① |①---|
口口口口 |--②-|
②②口口 |----|
口口口口 |----|
32
口口口口 |①-②-|
②③④⑤ |--③-|
口口口口 |--④-|
①口口口 |--⑤-|
33
口①①口 |----|
口口口口 |----|
口口口口 |①---|
口口口口 |----|
34
③口口③ |①---|
口口②② |②---|
口口①① |③---|
口口口口 |----|
35
口口④④ |①---|
口③口口 |②-③-|
口口②口 |④---|
①①口口 |----|
36
口⑥⑥口 |①-②-|
②口口① |③-④-|
④口口③ |⑤---|
口⑤⑤口 |⑥---|
37
口口口口 |①---|
①口口① |----|
口口口口 |----|
口口口口 |----|
38
口口①① |①---|
②②口口 |②---|
口口③③ |③---|
④④口口 |④---|
39
④④口口 |①---|
口口③③ |②---|
②②口口 |③---|
口口①① |④---|
40
口口口口 |①---|
口口口口 |----|
口①①口 |----|
口口口口 |----|
41
①①①① |①---|
口口口口 |----|
口口口口 |----|
口口口口 |----|
42
口口口⑤ |①-②-|
①②③口 |③---|
口口口口 |④---|
口口④口 |⑤---|
43
②口③口 |①---|
口口口口 |②---|
口口口口 |③---|
④①口口 |④---|
44
⑤口口口 |①-②-|
口③②① |③---|
口口口口 |④---|
口④口口 |⑤---|
45
口③口② |①---|
口口口口 |②---|
口口口口 |③---|
口口①④ |④---|
46
口②②④ |①---|
口③③口 |②---|
口①①口 |--③-|
口口口口 |--④-|
47
口口口口 |--①-|
④口口① |--②-|
④口口② |--③-|
口口口③ |--④-|
48
口口口口 |----|
口口口口 |----|
口口口口 |----|
口口口口 |----|
49
口①①口 |----|
口①①口 |----|
口口口口 |----|
口口口口 |①---|
50
②口口口 |①---|
口口口③ |②---|
口口口④ |③--④|
口口①⑤ |--⑤-|
51
口口口② |①---|
③口口口 |②---|
④口口口 |③--④|
⑤①口口 |--⑤-|
52
②口口口 |①---|
口口③口 |②---|
口口④① |③--④|
口口⑤口 |--⑤-|
53
口口口② |①---|
口③口口 |②---|
①④口口 |③--④|
口⑤口口 |--⑤-|
54
口②口⑤ |①---|
口口口④ |②---|
口口口③ |③--④|
口口口① |--⑤-|
55
⑤口②口 |①---|
④口口口 |②---|
③口口口 |③--④|
①口口口 |--⑤-|
56
口⑧⑦口 |①-②-|
口⑥⑤口 |③-④-|
口④③口 |⑤-⑥-|
口②①口 |⑦-⑧-|
57
口口口口 |①---|
⑤④③② |----|
①口口① |②-③-|
口口口口 |④-⑤-|
58
口①①口 |----|
口口口口 |①---|
口口③口 |②---|
口②口口 |③---|
59
口口口② |①---|
口口④④ |②---|
③③口口 |③---|
①口口口 |④---|
60
③①①口 |----|
口口口口 |①---|
口口口口 |②---|
口口口② |③---|
61
口口口口 |①---|
口口口口 |②---|
④③②① |③---|
口口口口 |④---|
62
④口口① |①---|
口③③口 |②---|
口口口口 |--③-|
口②口口 |--④-|
63
口口口口 |--①-|
①口口④ |--②-|
②口口④ |--③-|
③口口口 |--④-|
64
口口口口 |----|
口口口口 |----|
口口②口 |①---|
口①口口 |②---|
65
①口口① |①---|
⑤④③② |----|
口口口口 |②-③-|
口口口口 |④-⑤-|
66
口①①口 |----|
口口口口 |①---|
口口③口 |②---|
口②口口 |③---|
67
口口口② |①---|
口口④④ |②---|
③③口口 |③---|
①口口口 |④---|
68
③①①口 |----|
口口口口 |①---|
口口口口 |②---|
口口口② |③---|
69
口口口口 |①---|
口口口口 |②---|
④③②① |③---|
口口口口 |④---|
70
口口①① |①---|
口口①① |----|
②②口口 |②---|
②②口口 |----|
71
②②口口 |①---|
②②口口 |----|
口口①① |②---|
口口①① |----|
72
口口口口 |①-②-|
⑤⑥⑦⑧ |③-④-|
①②③④ |⑤-⑥-|
口口口口 |⑦-⑧-|

accuracy: 100%
最終更新:2023年08月12日 10:58