アットウィキロゴ
Pierce The Sky
JAKAZiD feat. K.N.

EXTREME

Level: 9.7
BPM: 170
Notes: 688

1
口口口口 |----|
口口口口 |----|
口口口口 |----|
口口口口 |----|
2
口口口口 |①--②|
①口⑥③ |--③-|
口⑤口口 |-④--|
②口口④ |⑤-⑥-|
3
①口⑥③ |①--②|
口⑤口口 |--③-|
②口口④ |-④--|
口口口口 |⑤-⑥-|
4
口口口口 |①--②|
③⑥口① |--③-|
口口⑤口 |-④--|
④口口② |⑤-⑥-|
5
③⑥口① |①--②|
口口⑤口 |--③-|
④口口② |-④--|
口口口口 |⑤-⑥-|
6
口口口③ |①--②|
口口口② |--③-|
口口口① |④--⑤|
口④⑤⑥ |--⑥-|
7
⑥⑤④口 |①--②|
①口口口 |--③-|
②口口口 |④--⑤|
③口口口 |--⑥-|
8
⑦⑦⑤⑤ |①-②-|
③③①① |③-④-|
⑥口口④ |⑤-⑥-|
口②⑧口 |⑦-⑧-|
9
口口口口 |①---|
口①①口 |----|
口①①口 |----|
口口口口 |----|
10
①口④① |①--②|
③口口口 |③-④-|
⑤⑧②⑥ |⑤⑥--|
⑦口⑦口 |⑦-⑧-|
11
①口口② |①--②|
③口①⑥ |③-④-|
⑤口⑧④ |⑤--⑥|
⑦口口⑤ |⑦-⑧-|
12
①口④① |①--②|
③口口口 |③-④-|
口口口口
口口②口

口口口⑦
口口口口
⑤口口口 |⑤⑥--|
⑦口⑧⑥ |⑦--⑧|
13
①口②口 |①-②-|
③口口口 |③④--|
口口口口
口口口④

口口⑧口
口口⑥口
⑤口口⑤ |⑤--⑥|
⑦口口口 |⑦-⑧-|
14
①口口口 |①--②|
③⑧口④ |③-④-|
⑤口①⑦ |⑤⑥--|
⑦口⑥② |⑦-⑧-|
15
①口②① |①--②|
③口口⑥ |③-④-|
⑤口④⑤ |⑤--⑥|
⑦口⑧口 |⑦-⑧-|
16
①口口④ |①--②|
③口①口 |③-④-|
口口口口
口口口②

口口口口
口口⑦口
⑤口⑥口 |⑤⑥--|
⑦口口⑧ |⑦--⑧|
17
①④④② |①-②-|
③⑤口② |③④--|
⑤⑤口⑧ |⑤--⑥|
⑦⑥⑥⑧ |⑦-⑧-|
18
①口④① |①--②|
③⑧口口 |③-④-|
⑤口②⑦ |⑤⑥--|
⑦口⑥口 |⑦-⑧-|
19
①口②① |①--②|
③口口⑥ |③-④-|
⑤口⑤⑧ |⑤--⑥|
⑦口④口 |⑦-⑧-|
20
①口①④ |①--②|
③口口口 |③-④-|
口口口口
口口口②

口口⑦口
口口口口
⑤口口口 |⑤⑥--|
⑦口⑥⑧ |⑦--⑧|
21
①口⑧② |①-②-|
③口⑥口 |③④--|
⑤口口⑤ |⑤--⑥|
⑦口④口 |⑦-⑧-|
22
①口口④ |①--②|
③⑧口① |③-④-|
⑤口⑦口 |⑤⑥--|
⑦口②⑥ |⑦-⑧-|
23
①口①② |①--②|
③口⑥口 |③-④-|
⑤口⑧④ |⑤--⑥|
⑦口口⑤ |⑦-⑧-|
24
①口③① |①--②|
①口口口 |--③-|
口口口口
口口②口

口口口⑥
口口口口
④口口口 |④⑤--|
④口⑦⑤ |⑥--⑦|
25
①①口口 |①--②|
口口口口 |③④⑤-|
③口口②
⑤口口④

⑩口口⑩
⑨⑧⑦⑥
口口口口 |-⑥⑦⑧|
口口口口 |⑨-⑩-|
26
口口③口 |①---|
口口口③ |②---|
②②口口 |③---|
④①①口 |④---|
27
口③口口 |①---|
③⑤⑤口 |②-③-|
口口②② |④---|
口①①④ |⑤---|
28
④⑥口⑥ |①-②-|
口口口③ |③-④-|
口②口口 |⑤---|
口⑤①⑤ |⑥---|
29
口⑤④口 |①-②-|
⑥①口③ |③-④-|
⑦口口② |⑤-⑥-|
①⑧①口 |⑦-⑧-|
30
②口口① |①---|
口口①⑥ |②-③-|
④口口③ |④---|
口口③⑤ |⑤-⑥-|
31
①口口② |①---|
⑥①口口 |②-③-|
③口口④ |④---|
⑤③口口 |⑤-⑥-|
32
④④口③ |①-②-|
口口①③ |--③-|
⑤①口口 |--④-|
⑤口②② |--⑤-|
33
口③②口 |①--②|
③④④② |--③-|
口④④口 |④---|
口①①口 |----|
34
口③口口 |①---|
③口口口 |②---|
口口②② |③---|
口①①④ |④---|
35
口口③口 |①---|
口⑤⑤③ |②-③-|
②②口口 |④---|
④①①口 |⑤---|
36
⑥口⑥④ |①-②-|
③口口口 |③-④-|
口口②口 |⑤---|
⑤①⑤口 |⑥---|
37
口④⑤口 |①-②-|
③口①⑥ |③-④-|
②口口⑦ |⑤-⑥-|
口①⑧① |⑦-⑧-|
38
②②口③ |①---|
口口口③ |②---|
①口口口 |③---|
①口④④ |④---|
39
口口③口 |①---|
④④③口 |②---|
口①②② |③---|
口①口口 |④---|
40
③⑥口⑤ |①-②③|
口口⑦口 |-④⑤-|
②口口④ |⑥-⑦-|
⑧口①⑨ |⑧-⑨-|
41
③④⑨⑩ |①-②-③-|
②⑤⑧⑪ |④-⑤-⑥-|
①⑥⑦⑫ |⑦-⑧-⑨-|
口口口口 |⑩-⑪-⑫-|
42
⑦口⑦口 |①-②-|
②口④口 |③-④-|
口⑤⑥口 |⑤⑥-⑦|
③⑧①⑧ |--⑧-|
43
④⑤④⑥ |-①--|
③①③① |②--③|
口⑤口⑥ |-④--|
②口②口 |⑤-⑥-|
44
口口口口 |①-②-|
口④口② |③-④-|
口口口口
口①①③

口⑦口⑦
口口口口
口⑥⑤口 |⑤⑥-⑦|
⑧口⑧口 |--⑧-|
45
口⑤⑥口 |-①--|
①③①③ |②--③|
⑤口口⑥ |--④-|
④②④② |⑤-⑥-|
46
①口⑥① |①---|
②口③④ |②---|
③口①⑥ |③-④-|
⑤②④② |⑤-⑥-|
47
①口口④ |①-②-|
③口口口 |③-④-|
口②④口
口口口②

口口⑥口
口口口⑥
⑤口口口 |⑤-⑥-|
⑦⑧口⑧ |⑦-⑧-|
48
①⑦口口 |①-②-|
⑤⑥④⑦ |③-④-|
⑧③②口 |⑤⑥-⑦|
口口⑧口 |--⑧-|
49
⑤④②口 |-①--|
②口⑤④ |②--③|
口⑤③① |--④-|
③①口⑤ |⑤---|
50
⑤④口⑤ |①-②-|
⑥②口⑦ |③-④-|
⑦口口口 |⑤--⑥|
③①口⑥ |--⑦-|
51
④②口口 |①-②-|
口口口口 |③-④-|
口口口口
③①口口

口口⑦口
口⑤口⑥
口⑥口口 |⑤--⑥|
口⑦口⑤ |--⑦-|
52
⑥口口④ |①-②-|
口⑦②⑤ |③-④-|
⑤口③⑥ |⑤--⑥|
口口①⑦ |--⑦-|
53
口口④② |①-②-|
口口口③ |③-④-|
口口口口
口口①口

⑥⑦口口
口口⑤口
口口⑥口 |⑤--⑥|
口⑤⑦口 |--⑦-|
54
⑤口口⑤ |①-②-|
⑥④口口 |③-④-|
⑦②口⑦ |⑤--⑥|
①③口⑥ |--⑦-|
55
④②口口 |①-②-|
口口口口 |③-④-|
口口口口
③①口口

口口⑤⑦
口⑤口口
口⑥口口 |⑤--⑥|
口⑦口⑥ |--⑦-|
56
口①③口 |①-②-|
①口口③ |③-④-|
口口口口
④口②口

⑤口口⑦
口⑤⑦口
口口口口 |⑤-⑥-|
口口⑧⑥ |⑦-⑧-|
57
口⑤口口 |①②③④|
③⑥口④ |⑤⑥⑦⑧|
①⑦口②
口⑧口口

口口⑨口
口口⑩口
⑬口⑪口 |⑨⑩⑪⑫|
⑬口⑫口 |⑬---|
58
①口④① |①--②|
③口口口 |③-④-|
⑤⑧口⑥ |⑤⑥--|
⑦口⑦② |⑦-⑧-|
59
①口口② |①--②|
③口①⑥ |③-④-|
⑤口⑧④ |⑤--⑥|
⑦口口⑤ |⑦-⑧-|
60
①口④① |①--②|
③口口口 |③-④-|
口口口口
口口②口

口口口⑦
口口口口
⑤口口口 |⑤⑥--|
⑦口⑧⑥ |⑦--⑧|
61
①口②口 |①-②-|
③口口口 |③④--|
口口口口
口口口④

口口⑧口
口口⑥口
⑤口口⑤ |⑤--⑥|
⑦口口口 |⑦-⑧-|
62
①口口口 |①--②|
③⑧口④ |③-④-|
⑤口①⑦ |⑤⑥--|
⑦口⑥② |⑦-⑧-|
63
①口②① |①--②|
③口口⑥ |③-④-|
⑤口④⑤ |⑤--⑥|
⑦口⑧口 |⑦-⑧-|
64
①口口④ |①--②|
③口①口 |③-④-|
口口口口
口口口②

口口口口
口口⑦口
⑤口⑥口 |⑤⑥--|
⑦口口⑧ |⑦--⑧|
65
①④④② |①-②-|
③⑤口② |③④--|
⑤⑤口⑦ |⑤--⑥|
口⑥⑥⑦ |--⑦-|
66
①口④① |①--②|
③⑧口口 |③-④-|
⑤口②⑦ |⑤⑥--|
⑦口⑥口 |⑦-⑧-|
67
①口②① |①--②|
③口口⑥ |③-④-|
⑤口⑤⑧ |⑤--⑥|
⑦口④口 |⑦-⑧-|
68
①口①④ |①--②|
③口口口 |③-④-|
口口口口
口口口②

口口⑦口
口口口口
⑤口口口 |⑤⑥--|
⑦口⑥⑧ |⑦--⑧|
69
①口⑧② |①-②-|
③口⑥口 |③④--|
⑤口口⑤ |⑤--⑥|
⑦口④口 |⑦-⑧-|
70
①口口③ |①--②|
①⑦口① |--③-|
④口⑥口 |④⑤--|
④口②⑤ |⑥-⑦-|
71
①口①② |①--②|
①口⑤口 |--③-|
④口⑥③ |④--⑤|
④口④口 |--⑥-|
72
①①⑧⑦ |①-②-|
②口口⑦ |③-④-|
③口口⑥ |⑤-⑥-|
③④⑤⑤ |⑦-⑧-|

accuracy: 100%
最終更新:2023年08月12日 11:12