アットウィキロゴ
HAPPY☆LUCKY☆YEAPPY
DJ ミラクル☆ストーン

BASIC

Level: 5
BPM: 190
Notes: 307

1
口口口口 |----|
口口口口 |----|
口口口口 |----|
口口口口 |----|
2
①②③口 |①---|
口口口口 |②---|
口口口口 |③---|
口口口口 |----|
3
口口口口 |①---|
口③②① |②---|
口口口口 |③---|
口口口口 |----|
4
口口口口 |①---|
口口口口 |----|
口②②口 |②---|
口①①口 |----|
5
①①①① |①---|
口②②口 |----|
口②②口 |----|
口口口口 |②---|
6
口口口口 |①---|
口口口口 |②---|
口口口口 |③---|
①②③口 |----|
7
口口口口 |①---|
口口口口 |②---|
口③②① |③---|
口口口口 |----|
8
①口口② |①---|
③口口④ |②---|
口口口口 |③---|
口口口口 |④---|
9
口口口口 |①---|
口②②口 |----|
口口口口 |②---|
口①①口 |----|
10
口口口口 |①---|
口口口口 |②---|
口③②① |③---|
口口口口 |----|
11
口口口口 |①---|
①②③口 |②---|
口口口口 |③---|
口口口口 |----|
12
②口口① |①---|
④口口③ |②---|
口口口口 |③---|
口口口口 |④---|
13
口口口口 |①---|
口②③口 |----|
口口口口 |②---|
口①①口 |③---|
14
口口口口 |①---|
③口口口 |②---|
②口口口 |③---|
①口口口 |----|
15
口口口口 |①---|
口口口③ |②---|
口口口② |③---|
口口口① |----|
16
口①②口 |①---|
口口口口 |②---|
口③④口 |③---|
口口口口 |④---|
17
②口口② |①---|
口口口口 |----|
口口口口 |②---|
口①①口 |----|
18
口口口③ |①---|
口口口② |②---|
口口口① |③---|
口口口口 |----|
19
③口口口 |①---|
②口口口 |②---|
①口口口 |③---|
口口口口 |----|
20
口口口口 |①---|
口口口口 |②---|
口④③口 |③---|
口②①口 |④---|
21
②②②② |①---|
①口口① |----|
口口口口 |②---|
口口口口 |----|
22
口口口口 |①---|
口口口口 |②---|
口口口口 |③---|
①②③口 |----|
23
口口口口 |①---|
口口口口 |②---|
口③②① |③---|
口口口口 |----|
24
口①①口 |①---|
口②②口 |----|
口口口口 |②---|
口口口口 |----|
25
口口口口 |①---|
口口口口 |----|
口①①口 |----|
口口口口 |----|
26
①口③口 |①---|
口②口④ |②---|
口口口口 |③---|
口口口口 |④---|
27
口③口① |①---|
④口②口 |②---|
口口口口 |③---|
口口口口 |④---|
28
口口口口 |①---|
口口口口 |②---|
口②口④ |③---|
①口③口 |④---|
29
口口口口 |①---|
口口口口 |②---|
④口②口 |③---|
口③口① |④---|
30
②口口① |①---|
④口口③ |②---|
口口口口 |③---|
口口口口 |④---|
31
口口口口 |①---|
口口口口 |②---|
②口口① |③---|
④口口③ |④---|
32
口口口口 |①---|
口②②口 |----|
口①①口 |②---|
口口口口 |----|
33
①①①① |①---|
口口口口 |----|
②口口② |②---|
②口口② |----|
34
口口口口 |①---|
口①口口 |----|
口口口口 |----|
口口口口 |----|
35
口口口口 |----|
口口口口 |----|
口口口口 |----|
口口口口 |----|
36
口口口口 |----|
口口口口 |----|
口口口口 |----|
口口口口 |----|
37
口口口口 |----|
口口口口 |----|
口口口口 |----|
口口口口 |----|
38
口口口口 |----|
口口口口 |----|
口口口口 |----|
口口口口 |----|
39
口口口口 |----|
口口口口 |----|
口口口口 |----|
口口口口 |----|
40
口口口口 |----|
口口口口 |----|
口口口口 |----|
口口口口 |----|
41
口口口口 |----|
口口口口 |----|
口口口口 |----|
口口口口 |----|
42
①②③④ |①---|
口口口口 |②---|
口口口口 |③---|
口口口口 |④---|
43
口口口口 |①---|
①②③④ |②---|
口口口口 |③---|
口口口口 |④---|
44
口口口口 |①---|
口口口口 |②---|
①②③④ |③---|
口口口口 |④---|
45
口口口口 |①---|
口口口口 |②---|
口口口口 |③---|
①②③④ |④---|
46
口口口口 |①---|
口口口口 |②---|
④③②① |③---|
口口口口 |④---|
47
口口口口 |①---|
①②③④ |②---|
口口口口 |③---|
口口口口 |④---|
48
口④④口 |①---|
口③③口 |②---|
口②②口 |③---|
口①①口 |④---|
49
口口口口 |①---|
①口口② |②---|
①③③② |③---|
口③③口 |----|
50
口口口口 |①---|
口②④口 |②---|
口口口口 |③---|
①口口③ |④---|
51
口口口口 |①---|
口口口口 |②---|
①②③口 |③---|
口口口口 |----|
52
口④②口 |①---|
口口口口 |②---|
③口口① |③---|
口口口口 |④---|
53
口口口口 |①---|
④③②① |②---|
口口口口 |③---|
口口口口 |④---|
54
口口口口 |①---|
④口口② |②---|
口口口口 |③---|
口③①口 |④---|
55
口口口口 |①---|
口口口口 |②---|
口③②① |③---|
口口口口 |----|
56
口②④口 |①---|
口口口口 |②---|
①口口③ |③---|
口口口口 |④---|
57
口口口口 |①---|
①②③④ |②---|
口口口口 |③---|
口口口口 |④---|
58
①口口① |----|
口口口口 |①---|
①口③① |②---|
口②口口 |③---|
59
口口口口 |①---|
①②③④ |②---|
口口口口 |③---|
口口口口 |④---|
60
①口②口 |①---|
口口口④ |②---|
口口口口 |③---|
口③口口 |④---|
61
口口口口 |①---|
口口口口 |②---|
①②③④ |③---|
口口口口 |④---|
62
口口口① |①---|
口②口口 |②---|
口口③口 |③---|
口④口口 |④---|
63
口口口口 |①---|
④③②① |②---|
口口口口 |③---|
口口口口 |④---|
64
口④口口 |①---|
口口③口 |②---|
口②口口 |③---|
口口①口 |④---|
65
②口口② |①---|
口口口口 |----|
①口口① |②---|
口口口口 |----|
66
口口口口 |①---|
口①口口 |②---|
口②口口 |③---|
口③口口 |----|
67
口口口口 |①---|
口口①口 |②---|
口口②口 |③---|
口口③口 |----|
68
口口口口 |①---|
口口口口 |----|
②口口② |②---|
①口口① |----|
69
①①①① |----|
口口口口 |----|
口口口口 |①---|
口口口口 |----|
70
口口口口 |①---|
③③④④ |②---|
口口口口 |③---|
①①②② |④---|
71
③③④④ |①---|
口口口口 |②---|
①①②② |③---|
口口口口 |④---|
72
口口口口 |①---|
①口口② |②---|
③①②④ |③---|
口③④口 |④---|
73
③口口③ |①---|
口②②口 |②---|
口口口口 |③---|
①口口① |----|
74
口口口口 |①---|
口口口口 |②---|
①②③④ |③---|
①②③④ |④---|
75
①②③④ |①---|
①②③④ |②---|
口口口口 |③---|
口口口口 |④---|
76
口口口口 |①---|
口②④口 |②---|
口④②口 |③---|
①口口③ |④---|
77
①口口① |①---|
②口口② |②---|
③口口③ |③---|
④口口④ |④---|
78
①口口① |①---|
口口口口 |----|
口①①口 |----|
口口口口 |----|

accuracy: 100%
最終更新:2023年08月12日 10:22