アットウィキロゴ
HAPPY☆LUCKY☆YEAPPY
DJ ミラクル☆ストーン

ADVANCED

Level: 8
BPM: 190
Notes: 527

1
口口口口 |----|
口口口口 |----|
口口口口 |----|
口口口口 |----|
2
④口口④ |①---|
口口口口 |②---|
①②③口 |③---|
口口口口 |④---|
3
口③口口 |①---|
口口④口 |②---|
口⑤口② |③-④-|
口口⑥① |⑤-⑥-|
4
①④②③ |①---|
口②④口 |②---|
①口口③ |③---|
口口口口 |④---|
5
⑥口口⑦ |①-②-|
⑤口口口 |③-④-|
③⑥⑦④ |⑤-⑥-|
①口口② |⑦---|
6
口口口口 |①---|
口①①口 |②---|
③④⑤⑥ |③-④-|
口②②口 |⑤-⑥-|
7
①口③① |--①-|
口④口口 |--②-|
口口⑤口 |--③-|
口②②口 |④-⑤-|
8
③④⑤⑥ |①---|
②口口② |②---|
口口口口 |③-④-|
①口口① |⑤-⑥-|
9
口口口口 |--①-|
①④④② |--②-|
口①②口 |③---|
③口口③ |④---|
10
①口口① |①---|
③④⑤⑥ |②---|
②口口② |③-④-|
口口口口 |⑤-⑥-|
11
口①①口 |--①-|
口口⑤口 |--②-|
口④口口 |--③-|
②口③② |④-⑤-|
12
①口口① |①---|
口口口口 |②---|
②口口② |③-④-|
③④⑤⑥ |⑤-⑥-|
13
口口①⑤ |--①-|
④②口⑤ |②-③-|
④口③⑤ |④---|
④口口口 |⑤---|
14
口口口口 |①---|
口②②口 |②---|
③④⑤⑥ |③-④-|
口①①口 |⑤-⑥-|
15
①口③① |--①-|
口④口口 |--②-|
口口⑤口 |--③-|
口②②口 |④-⑤-|
16
③④⑤⑥ |①---|
②口口② |②---|
口口口口 |③-④-|
①口口① |⑤-⑥-|
17
口③③口 |--①-|
①③③② |--②-|
口①②口 |----|
口口口口 |③---|
18
①口口① |①---|
③④⑤⑥ |②---|
②口口② |③-④-|
口口口口 |⑤-⑥-|
19
口①①口 |--①-|
口口⑤口 |--②-|
口④口口 |--③-|
②口③② |④-⑤-|
20
①口口① |①---|
口口口口 |②---|
②口口②
口口口口

口④口⑥
③口⑤口
口口口口 |③-④-|
口口口口 |⑤-⑥-|
21
口口①口 |--①-|
⑤②口⑥ |②-③-|
口口③口 |④-⑤-|
⑤④口⑥ |⑥---|
22
④口口④ |①---|
口口口口 |②---|
①②③口 |③---|
口口口口 |④---|
23
口③口口 |①---|
口口④口 |②---|
口⑤口② |③-④-|
口口⑥① |⑤-⑥-|
24
①④②③ |①---|
口②④口 |②---|
①口口③ |③---|
口口口口 |④---|
25
⑥口口⑦ |①-②-|
⑥⑤口⑦ |③-④-|
⑥③④⑦ |⑤-⑥-|
口①②口 |⑦---|
26
口①①口 |①---|
口口口口 |②---|
③④⑤⑥ |③-④-|
②口口② |⑤-⑥-|
27
④口口③ |--①-|
口②⑤口 |②-③-|
口口口口 |--④-|
口⑥①口 |⑤-⑥-|
28
口①①口 |①---|
⑥⑤④③ |②---|
②口口② |③-④-|
口口口口 |⑤-⑥-|
29
口①①口 |--①-|
口口口口 |--②-|
③口口③ |--③-|
口②②口 |----|
30
①口口① |①---|
③④⑤⑥ |②---|
口②②口 |③-④-|
口口口口 |⑤-⑥-|
31
口④③口 |--①-|
口口口口 |②-③-|
②口口⑤ |--④-|
口⑥①口 |⑤-⑥-|
32
①口口① |①---|
③④⑤⑥ |②---|
口②②口 |③-④-|
口口口口 |⑤-⑥-|
33
⑤④③⑤ |--①-|
口口口口 |②-③-|
②⑤⑤① |④---|
口口口口 |⑤---|
34
口口口口 |①---|
口口口口 |----|
口口口口 |----|
口口口① |----|
35
口口口口 |----|
口口口口 |----|
口口口口 |----|
口口口口 |----|
36
口口口口 |----|
口口口口 |----|
口口口口 |----|
口口口口 |----|
37
口口口口 |----|
口口口口 |----|
口口口口 |----|
口口口口 |----|
38
口口口口 |①---|
口①②口 |----|
口口口口 |②---|
口口口口 |----|
39
口口口口 |①---|
口口口口 |----|
口①②口 |②---|
口口口口 |----|
40
口口口口 |①---|
口①②口 |----|
口口口口 |②---|
口口口口 |----|
41
③③口口 |①---|
③③口口 |----|
口①②口 |②---|
口口口口 |③---|
42
口口口④ |①---|
口口口③ |②---|
口口口② |③---|
口口口① |④---|
43
口口①口 |①---|
口口②口 |②---|
口口③口 |③---|
口口④口 |④---|
44
口④口口 |①---|
口③口口 |②---|
口②口口 |③---|
口①口口 |④---|
45
①口口口 |①---|
②口口口 |②---|
③口口口 |③---|
④口口口 |④---|
46
口⑦⑧口 |①-②-|
口⑤⑥口 |③-④-|
口③④口 |⑤-⑥-|
口①②口 |⑦-⑧-|
47
①口口② |①-②-|
③口口④ |③-④-|
⑤口口⑥ |⑤-⑥-|
⑦口口⑧ |⑦-⑧-|
48
①②③④ |①②③④|
⑤⑥⑦⑧ |⑤⑥⑦⑧|
⑨⑩⑪⑫ |⑨⑩⑪⑫|
⑬⑭⑮⑯ |⑬⑭⑮⑯|
49
①①口口 |①---|
②口②口 |②---|
③③口口 |③---|
口口口口 |----|
50
③②口② |①---|
口口④口 |②---|
口⑤口口 |③-④-|
①口①口 |⑤---|
51
口口口⑦ |①-②-|
⑥口口⑤ |③-④-|
④口口③ |⑤-⑥-|
②口口① |⑦---|
52
口①①口 |①---|
口口③口 |②---|
口④口口 |③-④-|
口②②⑤ |⑤---|
53
①口口② |①-②-|
③口口④ |③-④-|
⑤口口⑥ |⑤-⑥-|
⑦口口⑧ |⑦-⑧-|
54
口②②口 |①---|
口⑤④③ |②---|
口①①口 |③-④-|
口口口口 |⑤---|
55
口口③口 |①-②-|
②⑧口口 |③-④-|
口⑥口⑦ |⑤-⑥-|
口④①⑤ |⑦-⑧-|
56
口②口口 |①---|
口口口① |②---|
②④⑤口 |③-④-|
③口①⑥ |⑤-⑥-|
57
①⑤⑤④ |①-②-|
口②③口 |③-④-|
⑥口口⑥ |⑤---|
⑥口口⑥ |⑥---|
58
②口口口 |----|
①口③① |①---|
口④口口 |②-③-|
口①①口 |④---|
59
口口口⑦ |①-②-|
⑥口口⑤ |③-④-|
④口口③ |⑤-⑥-|
②口口① |⑦---|
60
口①①口 |①---|
口口③口 |②---|
口④口口 |③-④-|
口②②⑤ |⑤---|
61
①口口② |①-②-|
③口口④ |③-④-|
⑤口口⑥ |⑤-⑥-|
⑦口口⑧ |⑦-⑧-|
62
口②②口 |①---|
口⑤④③ |②---|
口①①口 |③-④-|
口口口口 |⑤---|
63
口口③口 |①-②-|
②⑧口口 |③-④-|
口⑥口⑦ |⑤-⑥-|
口④①⑤ |⑦-⑧-|
64
口②口④ |①---|
③口口① |②---|
②口口④ |③---|
③口①口 |④---|
65
⑤③③⑤ |①--②|
⑤②②⑤ |--③-|
口①①口 |④---|
④口口④ |⑤---|
66
④口口④ |①---|
口口口口 |②---|
①②③口 |③---|
口口口口 |④---|
67
口③口口 |①---|
口口④口 |②---|
口⑤口② |③-④-|
口口⑥① |⑤-⑥-|
68
①④②③ |①---|
口②④口 |②---|
①口口③ |③---|
口口口口 |④---|
69
③口口③ |①---|
口口口口 |②---|
口③③口 |③---|
①口口② |----|
70
口①②口 |①-②-|
口③④口 |③-④-|
⑤口口⑥ |⑤-⑥-|
⑦口口⑧ |⑦-⑧-|
71
⑦口口⑧ |①-②-|
⑤口口⑥ |③-④-|
口③④口 |⑤-⑥-|
口①②口 |⑦-⑧-|
72
口①②口 |①-②-|
⑤口口⑥ |③-④-|
③口口④ |⑤-⑥-|
口⑦⑧口 |⑦-⑧-|
73
⑤口口⑥ |①-②-|
口③④口 |③-④-|
口⑤⑥口 |⑤---|
①口口② |⑥---|
74
口口口⑧ |①-②-|
①⑦④② |③-④-|
⑤口口口 |⑤-⑥-|
口③⑥口 |⑦-⑧-|
75
⑦①⑥口 |①-②-|
口口口口 |③-④-|
口③⑧④ |⑤-⑥-|
⑤口口② |⑦-⑧-|
76
口②④口 |①---|
①口口③ |②---|
①口口③ |③---|
口④②口 |④---|
77
口④④口 |①---|
口③口③ |②---|
②口②口 |③---|
①口口① |④---|
78
口口口口 |①---|
①口①口 |----|
口①口① |----|
口口口口 |----|

accuracy: 100%
最終更新:2023年08月12日 10:31