アットウィキロゴ
HAPPY☆LUCKY☆YEAPPY
DJ ミラクル☆ストーン

EXTREME

Level: 10.3
BPM: 190
Notes: 748

1
口口口口 |----|
口口口口 |----|
口口口口 |----|
口口口口 |----|
2
⑦①②⑧ |①②③④|
⑨③④口 |⑤-⑥-|
口⑤口口 |⑦⑧⑨-|
口⑪⑩⑥ |⑩-⑪-|
3
口②①口 |①②③④|
口④③口 |⑤-⑥-|
口口⑤口
⑥口口口

⑨口⑩⑧
⑦口口⑩
⑨⑦口⑧ |⑦-⑧-|
口口口口 |⑨-⑩-|
4
口⑥⑦口 |①---|
口③②口 |②③④-|
口⑧④口 |⑤---|
⑤①①⑤ |⑥⑦⑧-|
5
②⑨⑨① |①②③④|
④⑨⑨③ |⑤-⑥-|
⑧口⑦⑤ |⑦-⑧-|
⑥⑨⑨⑧ |⑨---|
6
①⑦⑦① |①---|
③口口② |②---|
口⑥⑥④ |③④⑤-|
②⑤口口 |⑥-⑦-|
7
③⑦⑦② |①-②-|
口口口⑥ |③-④-|
①口口口 |⑤-⑥-|
⑤⑦⑦④ |⑦---|
8
口⑦⑦② |①---|
①⑥⑥③ |②---|
②④口① |③④⑤-|
口口⑤口 |⑥-⑦-|
9
③口口④ |--①-|
①口口口 |--②-|
②③④② |③---|
③①口④ |④---|
10
③⑦⑦口 |①---|
①口④① |②---|
⑤⑥⑥口 |③④⑤-|
口②②口 |⑥-⑦-|
11
⑤⑦口⑦ |①-②-|
口③⑦② |③-④-|
口⑦口⑥ |⑤-⑥-|
①口口④ |⑦---|
12
⑦口口⑦ |①---|
①③口① |②---|
口口④⑥ |③④⑤-|
⑤②②口 |⑥-⑦-|
13
口②⑤⑤ |--①-|
④口⑤③ |②-③-|
④④⑤⑤ |④---|
④④①口 |⑤---|
14
①口口口 |①---|
口②口口 |②---|
口口口口
口口②①

⑦③口⑦
口口口④
⑤⑥⑥口 |③④⑤-|
口口口口 |⑥-⑦-|
15
口口口口 |--①-|
①③①⑤ |--②-|
口口口口 |--③-|
口②④② |④-⑤-|
16
①⑦⑦① |①---|
口③口口 |②---|
⑤②②④ |③④⑤-|
⑥口口⑥ |⑥-⑦-|
17
①口⑦② |--①-|
⑤口口⑥ |--②-|
③口口④ |③④⑤⑥|
口②①⑦ |⑦---|
18
口口口③ |①---|
⑦①①⑦ |②---|
④⑥⑥口 |③④⑤-|
口②②⑤ |⑥-⑦-|
19
②③①口 |--①-|
⑦口④⑥ |--②-|
口⑤口⑥ |③④⑤-|
①⑦②口 |⑥-⑦-|
20
④口口② |①-②-|
口③⑤口 |--③-|
③口①⑤ |--④-|
④口口② |--⑤-|
21
⑤④⑤② |--①-|
口⑤⑥⑥ |②-③-|
⑤口⑥⑥ |④-⑤-|
口③⑥① |⑥---|
22
口⑥⑥③ |①---|
②④口口 |②---|
口口⑤口 |③④⑤-|
①⑥⑥① |⑥---|
23
⑤口⑥④ |①---|
③口②⑥ |②---|
⑤③口④ |③-④-|
①口口① |⑤-⑥-|
24
口②⑥口 |①---|
⑦口③⑧ |②③④-|
口⑤⑤口 |⑤---|
④①①口 |⑥⑦⑧-|
25
⑥④⑥② |①-②-|
口⑥⑦⑦ |③-④-|
⑥⑤⑦⑦ |⑤-⑥-|
口①⑦③ |⑦---|
26
⑦⑦③① |①---|
口④口口 |②---|
⑥⑥口口 |③④⑤-|
①②⑤② |⑥-⑦-|
27
口口③③ |--①-|
口④②② |②-③-|
④⑥①① |--④-|
口⑥⑤⑤ |⑤-⑥-|
28
口口口口 |①---|
①口口口 |②---|
口口②①
②口口口

口④口⑤
口口口口
③口口⑥ |③-④-|
口⑥口口 |⑤-⑥-|
29
口口③口 |--①-|
①口①③ |--②-|
④口口口 |--③-|
②④②口 |--④-|
30
①口口① |①---|
口口口口 |②---|
口②②口
口口口口

⑦③口口
口⑦④口
⑥口口口 |③④⑤-|
⑤⑥口口 |⑥-⑦-|
31
口口③④ |--①-|
②口口口 |②-③-|
口口⑤口 |--④-|
口口①⑥ |⑤-⑥-|
32
①②⑨⑩ |①②③④|
③④⑪⑫ |⑤⑥⑦⑧|
⑤⑥⑬⑭ |⑨⑩⑪⑫|
⑦⑧⑮⑯ |⑬⑭⑮⑯|
33
①⑤口⑥ |--①②|
②口口口 |③-④-|
③口口口 |⑤---|
⑤④⑥口 |⑥---|
34
口口口口 |①---|
口①①口 |----|
口①①口 |----|
口口口口 |----|
35
口口口口 |----|
口口口口 |----|
口口口口 |----|
口口口口 |----|
36
口口口口 |----|
口口口口 |----|
口口口口 |----|
口口口口 |----|
37
口口口口 |----|
口口口口 |----|
口口口口 |----|
口口口口 |----|
38
口口口② |①---|
口口口口 |----|
口①①口 |②---|
口口口口 |----|
39
口口口口 |①---|
口口口口 |----|
①口口口 |②---|
口口口② |----|
40
口口②口 |①---|
口口口口 |----|
口①口口 |②---|
口口口口 |----|
41
③口③口 |①---|
③③③口 |----|
③口③口 |②---|
②①①② |③---|
42
口④口③ |①---|
口口口口 |②---|
口②口① |③---|
口口口口 |④---|
43
口口口口 |①---|
③口④口 |②---|
口口口口 |③---|
①口②口 |④---|
44
口口口口 |①---|
口④口③ |②---|
口口口口 |③---|
口②口① |④---|
45
③口④口 |①---|
口口口口 |②---|
①口②口 |③---|
口口口口 |④---|
46
口口口口 |①-②-|
口口口口 |③-④-|
⑤⑥④③ |⑤-⑥-|
⑦⑧②① |⑦-⑧-|
47
③④⑥⑤ |①-②-|
①②⑧⑦ |③-④-|
口口口口 |⑤-⑥-|
口口口口 |⑦-⑧-|
48
⑦⑧⑨⑩ |①②③④|
⑥⑮⑯⑪ |⑤⑥⑦⑧|
⑤⑭⑬⑫ |⑨⑩⑪⑫|
④③②① |⑬⑭⑮⑯|
49
口③③口 |①---|
②口口口 |②---|
②口口口 |③---|
口③③① |----|
50
①⑤口② |①---|
③⑥口口 |②---|
口⑦口④ |③-④-|
②⑧口① |⑤⑥⑦⑧--|
51
⑩口③⑬ |①-②-|
⑥⑧⑦口 |③-④⑤|
②口⑪⑨ |⑥⑦⑧⑨|
④⑫⑤① |⑩⑪⑫⑬|
52
口①⑤口 |①---|
口③⑥② |②---|
①口⑦口 |③-④-|
④口⑧② |⑤⑥⑦⑧--|
53
⑦口⑩④ |①-②③|
①⑨口⑥ |④-⑤⑥|
①③口⑧ |⑦-⑧-|
口⑤口② |⑨-⑩-|
54
口⑤口② |①---|
①⑥③口 |②---|
②⑦口口 |③-④-|
④⑧口① |⑤⑥⑦⑧--|
55
⑥⑩⑬③ |①-②-|
②口⑦⑨ |③-④⑤|
④⑫口⑤ |⑥⑦⑧⑨|
⑧口①⑪ |⑩⑪⑫⑬|
56
④口口② |①---|
①口口⑥ |②---|
③口②口 |③-④-|
口①口⑤ |⑤-⑥-|
57
口⑦①⑦ |①-②-|
②③④口 |③-④-|
⑤⑦口⑦ |⑤-⑥-|
②③④⑥ |⑦---|
58
①④①口 |----|
②⑤口口 |①---|
口⑥口③ |②-③-|
①⑦①口 |④⑤⑥⑦--|
59
⑩口③⑬ |①-②-|
⑥⑧⑦口 |③-④⑤|
②口⑪⑨ |⑥⑦⑧⑨|
④⑫⑤① |⑩⑪⑫⑬|
60
口①⑤口 |①---|
口③⑥② |②---|
①口⑦口 |③-④-|
④口⑧② |⑤⑥⑦⑧--|
61
⑦口⑩④ |①-②③|
①⑨口⑥ |④-⑤⑥|
①③口⑧ |⑦-⑧-|
口⑤口② |⑨-⑩-|
62
口⑤口② |①---|
①⑥③口 |②---|
②⑦口口 |③-④-|
④⑧口① |⑤⑥⑦⑧--|
63
⑥⑩⑬③ |①-②-|
②口⑦⑨ |③-④⑤|
④⑫口⑤ |⑥⑦⑧⑨|
⑧口①⑪ |⑩⑪⑫⑬|
64
⑪⑮⑯④ |①②③④|
③⑦⑧⑫ |⑤⑥⑦⑧|
⑤⑬⑥⑩ |⑨⑩⑪⑫|
⑨①②⑭ |⑬⑭⑮⑯|
65
口④口④ |①---|
②口口③ |----|
④口④口 |②-③-|
口①①口 |④---|
66
③⑥⑥口 |①---|
口②②④ |②---|
口⑤口口 |③④⑤-|
①⑥⑥① |⑥---|
67
⑤口⑥④ |①---|
③②②⑥ |②---|
⑤③口④ |③-④-|
①口口① |⑤-⑥-|
68
口⑤口口 |①---|
⑤④⑥口 |②③④-|
口⑦③⑧ |⑤---|
①②口① |⑥⑦⑧-|
69
口③③③ |①---|
口口口③ |②---|
口口③口 |③---|
①口③② |----|
70
②④⑥⑧ |①-②-|
⑤⑦③口 |③-④-|
⑧⑥口① |⑤-⑥-|
①③⑤⑦ |⑦-⑧-|
71
口④口口 |①-②-|
口口④② |③-④-|
口口③①
②口口口

口口⑥口
⑧⑥口口
⑦⑤口⑧ |⑤-⑥-|
口口⑦口 |⑦-⑧-|
72
①③口口 |①-②-|
口口③① |③-④-|
口口口口
②④口口

口口⑤⑦
⑦⑤口⑧
⑥口口口 |⑤-⑥-|
口口⑥⑧ |⑦-⑧-|
73
④⑤⑥⑧ |①②③-|
口口口⑧ |④⑤⑥-|
口③②① |⑦---|
⑦⑧⑦口 |⑧---|
74
口口③口 |①-②-|
①③口口 |③-④-|
②④口①
口口口口

⑤⑥口口
口口⑤⑦
口口⑥⑧ |⑤-⑥-|
⑦⑧口口 |⑦-⑧-|
75
⑤⑥④② |①-②-|
⑦⑧⑨⑩ |③-④-|
②④⑪⑫ |⑤⑥⑦⑧|
口口③① |⑨⑩⑪⑫|
76
④④②② |①---|
口口口口 |②---|
口口口口 |③---|
①①③③ |④---|
77
⑥口⑥③ |①-②-|
口⑥⑦⑦ |③-④-|
⑥②⑦⑦ |⑤-⑥-|
①④⑦⑤ |⑦---|
78
口①口口 |①---|
①口口口 |----|
口①口口 |----|
①口口口 |----|

accuracy: 100%
最終更新:2023年08月12日 10:45