アットウィキロゴ
BPM:167
1
④□①① |①-②-|
⑤□⑦② |③-④-|
⑥□⑧③ |⑤-⑥-|
□□□□ |⑦-⑧-|
2
□□□⑤ |①-②-|
⑥②□□ |③-④-|
□③□⑦ |⑤-⑥-|
⑧④①① |⑦-⑧-|
3
□④①□ |①-②-|
□⑤②① |③-④-|
□⑥③□ |⑤-⑥-|
□□□□ |⑦-⑧-|

□□□□
□□□⑦
□□□⑧
□□□□
4
□□⑤□ |①-②-|
②□□□ |③-④-|
③□□□ |⑤-⑥⑦|
④□①① |⑧-⑨⑩|

□□□□
□⑧□□
□⑩⑦□
□⑥⑨□
5
④□□① |①-②-|
⑤□①② |③-④-|
⑥□□③ |⑤-⑥-|
□□□□ |⑦-⑧-|

□□□□
□□⑦□
□□⑧□
□□□□
6
□□□⑤ |①-②-|
⑥②□□ |③-④-|
□③□⑦ |⑤-⑥-|
⑧④①① |⑦-⑧-|
7
□④①□ |①-②-|
□⑤②① |③-④-|
□⑥③□ |⑤-⑥-|
□□□□ |⑦-⑧-|

□□□□
□□□⑦
□□□⑧
□□□□
8
□□⑤□ |①-②-|
②□□□ |③-④-|
③⑥⑥□ |⑤---|
④□①① |⑥---|
9
①⑥③① |①---|
⑥①□③ |②-③-|
②④□⑤ |④---|
④②⑤□ |⑤-⑥-|
10
③⑥①① |--①-|
□④□□ |②-③-|
③□④□ |④---|
□②⑤② |⑤-⑥-|
11
③□①□ |①---|
①③□① |②-③-|
□□②④ |④---|
□□④② |⑤-⑥-|

□□⑤⑤
□□□□
□□□□
⑥⑥□□
12
□①④□ |--①-|
①□②⑤ |②-③-|
③③⑥② |④-⑤-|
□□□⑦ |⑥-⑦-|
13
①⑥③① |①---|
⑥①□③ |②-③-|
②④□⑤ |④---|
④②⑤□ |⑤-⑥-|
14
③⑥①① |--①-|
⑥④⑤□ |②-③-|
③⑤④⑥ |④--⑤|
□②⑥② |--⑥-|
15
④□⑨① |①-②-|
⑫⑧⑤□ |③-④-|
□⑥⑦⑪ |⑤⑥⑦⑧|
②⑩□③ |⑨⑩⑪⑫|
16
□②□① |(83.5)①---|
□③□⑤ |(167)②-③-④-|
□④□⑥ |⑤-⑥-⑦-|
□□□⑦
17
③④①① |①---|
④③①□ |②---|
②□□□ |③-④-|
②②⑤⑤ |⑤---|
18
⑤□⑦① |①-②③|
□⑦⑥⑥ |④-⑤-|
⑦②③⑥ |⑥---|
④□□□ |⑦---|
19
④④□① |①-②③|
⑥⑤□□ |④---|
⑤②⑥□ |⑤-⑥-|
⑦⑦③□ |⑦---|
20
⑩□⑤④ |①②③④|
⑨□①⑧ |⑤⑥⑦⑧|
⑨⑪⑦② |⑨---|
□□③⑥ |⑩-⑪-|
21
□③①① |①---|
③□①□ |②---|
②□□□ |③-④⑤|
②②□□ |⑥---|

□□⑥□
□□□⑥
□⑤④□
□□□□
22
②□⑥③ |①-②-|
□⑦□□ |③-④⑤|
□⑤⑧□ |⑥-⑦-|
①⑨□④ |⑧-⑨-|
23
①□⑥□ |①②③④|
③⑦②□ |⑤⑥⑦⑧|
⑤□□⑧ |⑨⑩⑪⑫|
□□□④ |⑬⑭⑮⑯|

⑮⑪□⑩
□□⑯⑫
□□□□
⑨⑬⑭□
24
⑩⑩④⑧ |①②③④|
①⑦□□ |⑤⑥⑦⑧|
⑤③⑥□ |⑨-⑩-|
⑨⑨□② |⑪---|

□□□□
>――⑪
>――⑪
□□□□
25
⑤⑥①□ |①-②③|
⑥⑤①1 |④---|
④②③1 |⑤-⑥-|
④④⑦⑦ |⑦---|
26
⑤□⑦① |①-②③|
□⑦⑥⑥ |④-⑤-|
⑦②③⑥ |⑥---|
④□□□ |⑦---|
27
④④□① |①-②③|
⑥⑤□□ |④---|
⑤②⑥□ |⑤-⑥-|
⑦⑦③□ |⑦---|
28
⑫□⑤④ |①②③④|
⑩⑪①⑧ |⑤⑥⑦⑧|
□⑬⑦② |⑨-⑩⑪|
⑨⑨③⑥ |⑫-⑬-|
29
□②①① |①-②③|
□□①□ |④---|
④□③□ |⑤-⑥⑦|
④④□□ |⑧---|

⑧□⑧□
□⑥□⑤
□□□⑤
□□⑦□
30
□□□□ |①-②-|
□□④③ |③-④-|
②①③④ |⑤---|
①②⑤⑤ |⑥---|

□□□□
□□□□
□⑥□□
⑥□□□
31
⑥④⑤① |①②③④|
□⑧□□ |⑤⑥⑦⑧|
②□□③ |⑨⑩⑪⑫|
□□□⑦ |⑬⑭⑮⑯|

□□□□
⑫□⑬⑪
⑯⑭⑨⑮
⑩□□□
32
②③⑦⑤ |①---②③④-|
□□□□ |⑤--⑥-⑦--|
□□□□ |⑧⑨⑩⑪⑫⑬⑭⑮|
⑥①①④ |⑯---|

□□□□
⑧⑨⑩⑪
⑮⑭⑬⑫
□⑯⑯□
33
①□□① |①---|
□□□□ |----|
□□□□ |----|
□□□□ |----|
34
□□□□ |----|
□□□□ |----|
□□□□ |----|
□①②□ |--①②|
35
①□□① |①---|
□□□□ |----|
□□□□ |----|
□□□□ |----|
36
□□□□ |----|
□□□□ |----|
□□□□ |----|
□①②□ |--①②|
37
①□□① |①---|
□②□□ |----|
□□□□ |②---|
③□□□ |--③-|
38
□□□□ |①---|
□□②□ |----|
□□□□ |②---|
□③□① |--③-|
39
□⑥⑤① |①-②-|
②⑧⑦□ |③-④-|
□⑩⑨③ |⑤⑥⑦⑧|
④⑫⑪□ |⑨⑩⑪⑫|
40
□□□□ |----|
□□□□ |----|
□□□□ |----|
①②□□ |--①②|
41
⑧⑤①⑥ |①-②③|
②□④① |④-⑤-|
③□⑦□ |⑥-⑦-|
⑨⑨□⑦ |⑧-⑨-|
42
□②―< |①---|
>―①□ |②---|
□①―< |③---|
>―②□ |④-⑤⑥|

□□□□
□③―<
>―③□
□□□□

□3□□
④42□
□24④
⑤⑥3□
43
②⑤①⑥ |①-②③|
⑧□④① |④-⑤-|
③□□□ |⑥-⑦-|
⑨⑨⑦⑦ |⑧-⑨-|
44
>―①□ |①---|
□□□□ |②-③④|
□①―< |⑤---|
□□□□ |⑥-⑦⑧|

□□2□
>――⑤
□2□④
□□□③

□□□□
□⑦⑧6
□□□□
□□□□
45
□□□① |①---|
□□□| |②-③④|
□□□| |⑤---|
□□□∧ |⑥-⑦⑧|

∨□□2
|□□□
|④③□
⑤□□②

⑥□□□
□⑦⑧□
□□□□
6□□□
46
□□□∨ |①---|
□□□| |②-③④|
□□□| |⑤---|
□□□① |⑥-⑦⑧|

⑤□□②
|□□□
|④③□
∧□□2

6□□□
□⑦⑧□
□□□□
⑥□□□
47
□①⑤□ |①-②③|
①□□⑤ |④-⑤-|
□□□□ |⑥-⑦-|
□④③② |⑧-⑨-|

⑥□□⑧
□□□□
□⑥⑧□
⑦□□⑨
48
□⑤④□ |①②③④|
□①⑧□ |⑤⑥⑦⑧|
⑦□□⑥ |⑨⑩⑪⑫|
□③②□ |⑬-⑭⑮|

⑪□□⑫
□⑬□□
□⑨⑩□
⑭⑮□□
49
⑧⑤①⑥ |①-②③|
②□④① |④-⑤-|
③□⑦□ |⑥-⑦-|
⑨⑨□⑦ |⑧-⑨-|
50
□□□□ |①---|
>―①□ |②---|
□①―< |③---|
□□□□ |④-⑤⑥|

□□②②
□□2□
□2□□
□□□□

□□□□
□③―<
>―③□
□□□□

□□□□
□4□□
□□4□
⑤⑥④④
51
②⑤①⑥ |①-②③|
⑧□④① |④-⑤-|
③□□□ |⑥-⑦-|
⑨⑨⑦⑦ |⑧-⑨-|
52
>―①□ |①---|
□□□□ |②---|
□①―< |③---|
□□□□ |④-⑤⑥|

②③□∨
||∨|
∧∧|②
□□③□

342□
□⑤⑥□
□2□3
□□4□
53
□□□① |①---|
□□□| |②-③④|
□□□| |⑤---|
□□□∧ |⑥-⑦⑧|

∨□□2
|□□□
|④③□
⑤□□②

⑥□□□
□⑦⑧□
□□□□
6□□□
54
□□□∨ |①---|
□□□| |②-③④|
□□□| |⑤---|
□□□① |⑥-⑦⑧|

⑤□□②
|□□□
|④③□
∧□□2

6□□□
□⑧⑦□
□□□□
⑥□□□
55
□④①□ |①②③④|
⑧□□⑤ |⑤⑥⑦⑧|
⑥□□□ |⑨⑩⑪⑫|
□②⑦③ |⑬⑭⑮⑯|

⑫□□⑨
□⑯⑬□
□⑩⑮⑪
⑭□□□
56
③②①□ |①---|
|||□ |②---|
|||□ |③---|
∧∧∧□ |④⑤⑥⑦⑧⑨⑩⑪|

432□
⑦⑥⑤④
⑪⑩⑨⑧
□□□□
57
□□①① |①---|
□□□□ |----|
□□□□ |----|
□□□□ |----|
58
□□□□ |①---|
□①□□ |----|
①□□□ |----|
□□□□ |----|
59
□□①□ |①---|
□□□① |----|
□□□□ |----|
□□□□ |----|
60
□□□□ |①---|
□□□□ |----|
□□①□ |----|
□②③① |--②③|
61
①□②① |①-②-|
□③④□ |③-④-|
□⑤⑥□ |⑤-⑥-|
□⑦⑧□ |⑦-⑧-|
62
①□②① |①-②-|
□③④□ |③-④-|
□⑤⑥□ |⑤-⑥-|
□⑦⑧□ |⑦-⑧-|
63
①⑥□① |①②③④|
□②⑤□ |⑤⑥⑦⑧|
□⑧□⑦ |⑨⑩⑪⑫|
④□□③ |⑬⑭⑮⑯|

⑭□⑨⑬
⑩⑯□□
□□⑪□
□⑫⑮□
64
□□□□ |----|
□□□□ |----|
□□□□ |----|
□□□□ |----|
65
□□□□ |----|
□□□□ |----|
□□□□ |----|
□□□□ |----|
66
□□□□ |----|
□□□□ |----|
□□□□ |----|
□□□□ |----|
最終更新:2023年07月01日 23:26