アットウィキロゴ
BPM:190
1
①――< |①---|
□□□□ |----|
□□□□ |----|
□□□□ |----|
2
□□□□ |----|
□□□□ |----|
□□□□ |----|
□□□□ |----|
3
1□□□ |①-②-|
□□⑥③ |③-④-|
□⑤②□ |⑤-⑥-|
□□④① |----|
4
□□□① |----|
□□□□ |----|
□□□□ |①---|
□□□□ |----|
5
□□□□ |①-②-|
③⑥□□ |③-④-|
□②⑤① |⑤-⑥-|
①④□□ |----|
6
①□②□ |①---|
□③□□ |----|
□□□□ |----|
□□□□ |--②③|
7
□□□□ |①-②-|
□□⑥③ |③-④-|
①⑤②□ |⑤-⑥-|
□□④① |----|
8
□□□② |----|
①□③□ |--①-|
□□□④ |②-③-|
□□⑤□ |④-⑤-|
9
□□□□ |①-②-|
③⑥□□ |③-④-|
□②⑤□ |⑤-⑥-|
①④□□ |----|
10
⑨④③② |①---②-|
⑩⑦⑥□ |--③---|
⑪⑤□⑧ |④⑤⑥⑦|
①□□□ |⑧⑨⑩⑪|
11
□□□□ |①-②-|
□□⑥③ |③-④-|
□⑤②□ |⑤-⑥-|
①□④① |----|
12
□□□① |----|
□□□□ |----|
□□□□ |①---|
□□□□ |----|
13
□⑤□□ |①-②-|
③⑥□□ |③-④-|
□②⑤① |⑤-⑥-|
①④□□ |----|
14
□□③□ |①---|
□④□① |----|
□□□□ |②---|
□②□□ |--③④|
15
□⑦⑧□ |①-②-|
□□⑥③ |③-④-|
①⑤②□ |⑤-⑥-|
□□④① |⑦-⑧-|
16
□□□⑤ |①-②-|
④□⑥□ |③-④-|
□□□⑦ |⑤-⑥-|
①③⑧② |⑦-⑧-|
17
⑧□□⑦ |①-②-|
③⑥□□ |③-④-|
□②⑤□ |⑤-⑥-|
①④□□ |⑦-⑧-|
18
□□∨□ |①-②-|
□□|□ |③-④⑤|
□□|□ |⑥-⑦-|
□□①□ |⑧-⑨-|

□③□⑨
⑥⑧⑨⑦
□⑧⑤④
⑥□2⑦
19
②□∨□ |①---|
□□|□ |②---|
□□|□ |③-④-|
□①①□ |⑤---|

□⑤□⑤
⑤④□□
③□□□
□□3□
20
⑤□□⑩ |①--②③④|
⑦⑧⑨□ |⑤---|
□④③② |⑥--⑦⑧⑨|
①①⑥⑥ |⑩---|
21
②□□□ |①---|
□□□□ |②---|
①――< |③-④-|
□①□□ |⑤---|

□□□⑤
□⑤□□
3□□□
□□④③
22
②①□⑤ |①---|
①⑦②□ |②---|
⑥③□② |③-④-|
③□④□ |⑤-⑥-⑦-|
23
②⑥①⑤ |①---|
□□□□ |②---|
□□□□ |③-④-|
□□④③ |⑤-⑥-|
24
□□□□ |①---|
∨□□□ |②-③-|
①∨□□ |④---|
□①□□ |⑤-⑥-|

②□③□
□□□∨
2□∨④
□2④□

□⑥□⑤
□□□□
□□□5
□□5□
25
□□□□ |①---|
□∨□□ |②-③-|
∨①□□ |④---|
①□□□ |⑤-⑥-|

②□③□
□□∨□
□2④∨
2□□④

□□□⑤
□□□□
□□5□
□⑥□5
26
②⑤④⑧ |①---|
□①③□ |②-③-|
□□⑥□ |④⑤⑥⑦|
⑦□□□ |⑧---|
27
②□∨□ |①---|
□□|□ |②---|
□□|□ |③-④-|
□①①□ |⑤---|

□⑤□⑤
⑤□④□
③□□□
□□3□
28
②□②⑦ |①---|
④⑤⑥□ |②---|
□⑩⑨⑧ |③--④⑤⑥|
①①③③ |⑦--⑧⑨⑩|
29
②□□□ |①---|
□□□□ |②---|
①――< |③-④-|
□□□□ |⑤-⑥-|

□□□⑤
□⑤□□
3□⑥□
□□④③
30
②①□⑤ |①---|
①⑦②□ |②---|
⑥③□② |③-④-|
③□④□ |⑤-⑥-⑦-|
31
②⑥①⑤ |①---|
□□□□ |②---|
□□□□ |③-④-|
□□④③ |⑤-⑥-|
32
□□□□ |①---|
∨□□□ |②-③-|
①∨□□ |④---|
□①□□ |⑤-⑥-|

②□③□
□□□∨
2□∨④
□2④□

□⑥□⑤
□□□□
□□□5
□□5□
33
□□□□ |①---|
□∨□□ |②-③-|
∨①□□ |④---|
①□□□ |⑤-⑥-|

②□③□
□□∨□
□2④∨
2□□④

□□□⑤
□□□□
□□5□
□⑥□5
34
②□□□ |①---|
□①□□ |②-③-|
□□□③ |④-⑤-|
□□□□ |⑥-⑦-|

□□□□
⑥⑦④□
□⑤⑥□
④□□□
35
⑤③①□ |①---|
□□□□ |②-③-|
②④□□ |--④-|
⑤③①□ |⑤---|
36
⑤□□④ |--①-|
⑥③⑨□ |②-③-|
⑦⑩②□ |④---⑤⑥⑦⑧|
⑧□①□ |⑨-⑩-|
37
□①③⑤ |①---|
□②□□ |②-③-|
□□④□ |--④-|
□①③⑤ |⑤---|
38
⑥④□□ |--①-|
⑩⑨⑧⑦ |②-③-|
⑤①□③ |④-⑤-|
□②□□ |⑥---⑦⑧⑨⑩|
39
⑤③①④ |①---|
□□□□ |②-③-|
□□②□ |--④-|
⑤③①□ |⑤---|
40
③□□□ |----|
□□④□ |①---|
⑤①①□ |②-③-|
□□□② |④-⑤-|
41
□①③⑤ |①---|
□②□□ |②-③-|
□□④□ |--④-|
□①③⑤ |⑤---|
42
□□□□ |----|
③④①□ |----|
□②③□ |①-②-|
①□□□ |③-④-|
43
⑤③①□ |①---|
□□□□ |②-③-|
②④□□ |--④-|
⑤③①□ |⑤---|
44
⑧□□④ |--①-|
⑨③⑫⑤ |②-③-|
⑩⑬②⑥ |④⑤⑥⑦⑧⑨⑩⑪|
⑪□①⑦ |⑫-⑬-|
45
□①③⑤ |①---|
□②□□ |②-③-|
□□④□ |--④-|
□①③⑤ |⑤---|
46
⑥④□⑤ |--①-|
⑫⑪⑩⑨ |②-③-|
□①□③ |④-⑤⑥|
⑧②□⑦ |⑦-⑧-⑨⑩⑪⑫|
47
⑤③①④ |①---|
□□□□ |②-③-|
□□②□ |--④-|
⑤③①□ |⑤---|
48
⑥□□② |----|
□□⑦③ |①---|
⑧①①④ |②③④⑤⑥----|
□□□⑤ |⑦-⑧-|
49
□①③□ |①---|
□②□③ |②-③-|
□□□□ |--④-|
□①③□ |⑤---|

>――⑤
□□⑤□
□□④□
□□□⑤
50
□□□□ |----|
□□□□ |----|
□□□□ |----|
□□□□ |----|
51
□□⑦□ |----|
⑥①②□ |--①②|
□③④□ |③④⑤-|
□⑤□□ |⑥-⑦-|
52
□④□1 |①---|
□③□□ |②---|
②□□□ |③---|
①□①□ |④---|
53
□□④□ |①---|
□□③□ |②---|
□□□② |③---|
□□□① |④---|
54
④□□□ |①---|
③□□□ |②---|
□②□□ |③---|
□①□□ |④---|
55
□□□④ |①---|
□□□③ |②---|
□□②□ |③---|
□□①□ |④---|
56
⑦□□⑧ |①-②-|
⑤□□⑥ |③-④-|
③□□④ |⑤-⑥-|
①□□② |⑦-⑧-|
57
□⑦⑧□ |①-②-|
□⑤⑥□ |③-④-|
□③④□ |⑤-⑥-|
□①②□ |⑦-⑧-|
58
⑦□□⑧ |①-②-|
⑤□□⑥ |③-④-|
③□□④ |⑤-⑥-|
①□□② |⑦-⑧-|
59
⑮⑦⑧⑯ |①②③④|
⑬⑤⑥⑭ |⑤⑥⑦⑧|
⑪③④⑫ |⑨⑩⑪⑫|
⑨①②⑩ |⑬⑭⑮⑯|
60
□②□□ |①---|
□②―< |②---|
□□□□ |③-④-|
>―①□ |⑤---|

□□□□
□□③□
>―③□
□□□□

□□□□
④3□□
□⑤5□
⑤□2□
61
⑤④③② |①---|
⑨⑧⑦⑥ |②③④⑤----|
⑬⑫⑪⑩ |⑥⑦⑧⑨----|
□□□① |⑩⑪⑫⑬----|
62
⑤□□② |①---|
□□④□ |②-③-|
□□□□ |④-⑤-|
③①①□ |⑥---|

□□□□
□□□□
□□□⑥
>――⑥
63
⑤②④□ |①---|
□⑤□④ |②-③-|
①①□□ |④-⑤-|
□□③□ |⑥-⑦-|

□□□⑥
□□⑥□
□⑦□□
⑦□□2
64
□□③□ |①---|
①③□□ |②---|
①□②① |③---|
□②□□ |④---|

④――<
>――④
□□□□
□□□□
65
1①□③ |----|
□□①1 |①---|
□②□□ |②---|
③□②□ |③---|
66
④⑦②⑤ |①---|
□③⑥□ |②③④-|
②⑤④⑦ |--⑤⑥|
□①□① |⑦---|
67
□□□⑦ |----|
①□□□ |--①②|
②⑥⑤□ |③④⑤⑥|
④□□③ |⑦---|
68
②②□□ |①---|
□②―< |②---|
□□□□ |③-④-|
□①①□ |⑤---|

□□□□
④□③③
>―③□
□□□□

□□□□
□□□□
⑤――<
⑤□□□

□□□□
□3□□
□□5□
□□□□
69
□□□□ |①---|
□□□□ |②③④⑤----|
1□□□ |⑥⑦⑧⑨----|
□□□① |⑩⑪⑫⑬----|

⑤④③②
⑨⑧⑦⑥
⑬⑫⑪⑩
□□□□
70
⑤□□② |①---|
□□④□ |②-③-|
□□□□ |④-⑤-|
③①①□ |⑥---|

□□□□
□□□□
□□□⑥
>――⑥
71
⑤②④□ |①---|
□⑤□④ |②-③-|
①①□□ |④-⑤-|
□□③□ |⑥-⑦-|

□□□⑥
□□⑥□
□⑦□□
⑦□□2
72
□□③□ |①---|
①③□□ |②---|
①□②① |③---|
□②□□ |④---|

④――<
>――④
□□□□
□□□□
73
1①□③ |----|
□□①1 |①---|
□②□□ |②---|
③□②□ |③---|
74
④⑦②⑤ |①---|
□③⑥□ |②③④-|
②⑤④⑦ |--⑤⑥|
□①□① |⑦---|
75
□□□⑦ |----|
①□□□ |--①②|
②④③□ |③④⑤⑥|
⑥□□⑤ |⑦---|
76
②□□⑤ |①---|
□①①□ |②---|
□□④③ |③-④-|
□①①□ |⑤---|
77
③□□□ |①-②-|
□□□⑥ |③---|
①②□□ |④-⑤-|
□□⑤④ |⑥---|
78
□□□⑥ |①-②-|
③□①□ |③---|
□□⑤④ |④-⑤-|
①②□□ |⑥---|
79
③□□□ |①-②-|
□④①⑥ |③---|
①②□□ |④-⑤-|
□□⑤④ |⑥---|
80
□①①⑥ |①-②-|
③□□□ |③---|
□□⑤④ |④-⑤-|
①②□□ |⑥---|
81
③□□□ |①-②-|
□□□⑥ |③---|
①②□□ |④-⑤-|
□□⑤④ |⑥---|
82
□□□⑥ |①-②-|
③④①□ |③---|
□□⑤④ |④-⑤-|
①②□□ |⑥---|
83
③④①⑤ |①-②-|
□④□⑤ |③---|
①②□□ |④---|
□□□□ |⑤---|
84
□□□□ |----|
□□□□ |----|
□□□□ |----|
□□□□ |----|
85
□□□□ |----|
□□□□ |----|
□□□□ |----|
□□□□ |----|
最終更新:2023年07月01日 23:27