アットウィキロゴ
BPM:160
1
□□④□ |①---|
□③□□ |②---|
①□□② |③-④-|
□□□□ |----|
2
①□□① |①---|
□□□□ |--②-|
□②②□ |----|
□□□□ |----|
3
⑦⑮⑧⑯ |①②③④|
③⑪④⑫ |⑤⑥⑦⑧|
⑤⑬⑥⑭ |⑨⑩⑪⑫|
①⑨②⑩ |⑬⑭⑮⑯|
4
⑤□④□ |①②③④|
①□⑧□ |⑤⑥⑦⑧|
③□□□ |⑨⑩⑪⑫|
□⑦②⑥ |⑬⑭⑮⑯|

□⑬⑯□
□⑨□⑫
□⑮⑩⑭
⑪□□□
5
①――< |①---|
□④③□ |②---|
□⑥⑤□ |③-④-|
□□②② |⑤-⑥-|
6
3□①① |①---|
□□②② |--②-|
□⑤□□ |③---|
□□④□ |④-⑤-|
7
>――① |①---|
□④③□ |②---|
□⑥⑤□ |③-④-|
②②□□ |⑤-⑥-|
8
□□□4 |①-②-|
③□□□ |--③-|
□□□□ |④---|
③②①□ |----|
9
>――⑥ |①---|
□③②□ |②-③-④-|
□□□□ |⑤-⑥-|
⑤①①④ |⑦---|

□□□7
□□□□
□⑦⑦□
□□□□
10
①⑤⑤□ |①②③-|
□②□□ |④-⑤-|
③□□□ |⑥-⑦⑧|
□⑥④④ |⑨---|

□□□□
□□⑧⑦
□⑨∧∧
□□□□

□□□□
□□98
□□□□
□□□□
11
□□□① |①---|
①□□□ |②-③-④-|
□□□① |⑤-⑥-|
①□□□ |⑦---|

②③④□
|||□
∧∧∧□
□□□□

345□
□□⑥⑥
⑤□□□
□⑦□□
12
□⑪⑨□ |①-②-③-|
⑧⑦⑥⑤ |④--⑤⑥⑦|
⑪①②⑨ |⑧-⑨-|
③□⑩④ |⑩-⑪-|
13
②□□③ |①---|
□□□□ |②-③-④-|
□④⑤□ |⑤-⑥⑦|
①□□① |⑧---|

□□□□
□□⑦⑥
□□∧∧
□⑧□□

□□□□
□□87
□□□□
□□□□
14
①②③④ |①-②-③-|
|||| |④-⑤---|
∧∧∧∧ |⑥-⑦⑧|
□□□□ |⑨-⑩-|

2345
⑥□⑧⑦
□⑥∧∧
□□□□

□□□□
□□98
□□□⑩
⑨⑨□⑩
15
①□①③ |①---|
④②⑥⑤ |②-③-|
□④∧∧ |④-⑤⑥|
⑦⑧⑨⑩ |⑦⑧⑨⑩--|

□□□□
□□76
□□□□
□□□□
16
①②③□ |①-②-③-|
|||□ |④---|
∧∧∧□ |⑤-⑥-|
□□□□ |⑦-⑧-|

234□
□□□□
□□□□
□□□□

⑧□□⑥
□⑥⑧□
④⑦⑤□
⑤□□⑦
17
□②□□ |①-②-|
④□□③ |③-④-⑤-|
①□□① |⑥-⑦-|
□⑥⑤□ |⑧---|

>――⑦
□□□□
□⑧⑧□
□□□□

□□□8
□□□□
□□□□
□□□□
18
①⑤□⑦ |①②③-|
□②⑨□ |④-⑤-|
③□□⑥ |⑥-⑦-|
⑧□□④ |⑧-⑨-|
19
⑤⑥⑦⑧ |①②③④|
∧∧∧∧ |⑤⑥⑦⑧|
□③④□ |⑨-⑩-|
□①②□ |⑪---|

6789
⑩⑩□□
□□□□
⑨□□⑪
20
③⑤□④ |①-②-③-|
⑪⑥□⑨ |④--⑤⑥⑦|
①⑦□② |⑧-⑨-|
⑪⑧⑩⑨ |⑩-⑪-|
21
①⑦③① |①-②③|
□⑥⑩⑨ |④⑤⑥⑦--|
②⑤∧∧ |⑧-⑨⑩|
⑪④⑧□ |⑪---|

□□□□
□□⑪⑩
□□□□
□□□□
22
①②③□ |①-②-③-|
|||□ |④---|
∧∧∧□ |⑤-⑥⑦|
□□□□ |⑧---|

□□□□
□□⑦⑥
④⑧∧∧
□□⑤⑤

234□
□□87
□□□□
□□□□
23
②□③③ |①-②-|
②□□□ |③-④-|
⑤□⑤④ |⑤-⑥⑦|
①①□④ |⑧⑨⑩⑪--|

□⑧□□
□⑨⑦⑥
□⑩∧∧
□⑪□□

□□□□
□□87
□□□□
□□□□
24
□⑦⑥□ |①-②③|
③<□□ |④-⑤-⑥-|
□□□② |⑦-⑧-|
⑤□①④ |⑨-⑩-|

>――⑧
□□□□
□□□□
□□□□

⑩□□□
□□⑩□
⑨□□□
□□⑨□

□□□9
4□□□
□□□□
□□□□
25
□□④④ |①---|
②□□② |②---|
□①①□ |③-④-|
③③□□ |⑤-⑥-|

⑤□□□
□⑤□□
□□⑥□
□□□⑥
26
□①②□ |①---|
②□□① |--②-|
①□□② |----|
□②①□ |----|
27
③②□② |①---|
□□④□ |②---|
□□□□ |③-④-|
①⑤①□ |⑤---|
28
⑤□③⑤ |①-②-|
□□□□ |③---|
④②□④ |④---|
□□□① |⑤---|
29
>――⑥ |①---|
□③②□ |②-③-④-|
□⑦⑦□ |⑤-⑥-|
⑤①①④ |⑦---|

□□□7
□□□□
□□□□
□□□□
30
①⑤⑤□ |①②③-|
□②⑧⑦ |④-⑤-|
③□∧∧ |⑥-⑦⑧|
⑨⑥④④ |⑨---|

□□□□
□□98
□□□□
□□□□
31
①>―⑫ |①-②-③-|
②⑥⑦⑪ |④-⑤-⑥-|
③⑤⑧⑩ |⑦-⑧-⑨-|
□④⑨□ |⑩-⑪-⑫-|
32
②□□1 |①-②-|
□□□□ |③--④⑤⑥|
④⑤⑥⑦ |⑦-⑧-|
□①□③ |⑨-⑩-|

□⑧⑩□
⑧□□⑩
□□□□
□⑨□□
33
⑤□□④ |①---|
③□②□ |②---|
②□⑥□ |③-④-|
①□③① |⑤-⑥-|
34
⑤□□□ |①---|
④①□□ |②-③-|
②□□③ |④---|
①□③□ |⑤---|
35
□①□② |①-②-|
□□⑤④ |③-④-|
⑥③□⑥ |⑤-⑥-|
□③⑦⑧ |⑦-⑧-|
36
⑥□□② |①-②-|
③□⑦④ |③-④-|
⑦⑤②⑥ |⑤-⑥-|
①□□□ |⑦---|
37
□②⑤□ |①-②③|
③⑥□□ |④-⑤⑥|
□□□□ |⑦-⑧⑨|
①④⑦① |⑩-⑪⑫|

⑪□□⑧
□□⑨□
□⑫□□
□□□⑩
38
□②⑤□ |①-②③|
□□□□ |④-⑤⑥|
□□③⑥ |⑦-⑧⑨|
①④⑦□ |⑩-⑪⑫|

□□□□
⑧⑪□□
□⑨⑫□
⑩□□□
39
□⑤⑧□ |①-②③|
⑥⑨②□ |④-⑤⑥|
□⑦⑩③ |⑦-⑧⑨|
□①④□ |⑩-⑪⑫|

□□□⑪
□□⑫□
□□□□
□□□□
40
⑪②⑤⑧ |①-②③|
□□⑫□ |④-⑤⑥|
③⑥⑨① |⑦-⑧⑨|
□④⑦⑩ |⑩-⑪⑫|
41
⑬②③⑯ |①②③④|
①⑭⑮④ |⑤⑥⑦⑧|
⑤⑩⑪⑧ |⑨⑩⑪⑫|
⑨⑥⑦⑫ |⑬⑭⑮⑯|
42
⑬②③⑯ |①②③④|
⑤⑩⑪⑧ |⑤⑥⑦⑧|
①⑭⑮④ |⑨⑩⑪⑫|
⑨⑥⑦⑫ |⑬⑭⑮⑯|
43
⑮③⑧⑫ |①②③④|
①⑨⑯④ |⑤⑥⑦⑧|
⑦⑬⑭② |⑨⑩⑪⑫|
⑪⑤⑥⑩ |⑬⑭⑮⑯|
44
□⑦□⑧ |①②③④|
③□□④ |⑤⑥⑦⑧|
⑤□□② |----|
□①⑥□ |----|
45
□□□□ |①---|
□□□□ |②-③-④-|
□□□□ |⑤-⑥-⑦-|
①□□① |⑧---|

□□□□
□④③②
□|||
□∧∧∧

⑤⑥⑦□
□||□
⑧∧∧□
□□□□

□78□
□543
□□□□
□□□□
46
②□□② |①---|
□□⑤④ |②---|
□⑥∧∧ |③-④⑤|
③①①③ |⑥---|

□□□□
□□65
□□□□
□□□□
47
②③④⑥ |①---|
|||□ |②-③-④-|
∧∧∧⑤ |⑤-⑥-|
□①①□ |⑦-⑧-⑨-|

□□□□
⑦⑧⑨□
|||□
∧∧∧□

345□
89□□
□□□□
□□□□
48
∨∨∨□ |①-②-③-|
|||□ |④-⑤-⑥-|
④⑤⑥□ |⑦-⑧-|
□③②① |⑨-⑩-⑪-|

□⑧□□
□□1□
567□
⑦□□□

□□□□
□⑪⑩⑨
□□□□
□□□□
49
②③④□ |①---|
|||□ |②-③-④-|
∧∧∧□ |⑤-⑥⑦|
□①①□ |⑧-⑨⑩|

345□
⑨⑩⑦⑥
⑤□□□
□⑧□□
50
②□□② |①---|
□□□□ |②---|
□□□□ |③-④⑤|
□□①□ |⑥-⑦⑧|

□□□□
□□⑥□
□③③□
④⑤⑧⑦
51
□□⑦□ |①---|
□①□⑦ |②③④⑤|
⑤④③② |⑥-⑦-|
⑥⑧⑧□ |⑧---|
52
□□□③ |①-②-③-|
□②□□ |④-⑤-⑥-|
□□□① |⑦-⑧-|
□□□□ |⑨---|

④⑤⑥□
|||□
∧∧∧□
□□□□

567□
□□□□
⑦⑨⑨□
□□□⑧
53
□□□□ |①-②-③-|
①②③□ |④-⑤-⑥-|
|||□ |⑦-⑧-|
∧∧∧□ |⑨---|

□⑥⑤④
□|||
□∧∧∧
□□□□

□765
234□
⑦□⑧□
⑨□□⑨
54
②□□② |①---|
□□□□ |②---|
□□□□ |③-④⑤|
□①①□ |⑥---|

□□□□
□□⑤④
③□∧∧
③⑥□□

□□□□
□□65
□□□□
□□□□
55
②―<□ |①-②-③-|
①―<□ |④-⑤-⑥-|
□□□□ |⑦-⑧-⑨-|
□□□③ |⑩⑪⑫⑬|

□⑤―<
□④―<
□□□□
□□⑥□

>―⑧□
>―⑦□
⑬⑫⑪⑩
□⑨□□

369□
258□
□□□□
□□□□
56
⑥⑦⑦③ |①-②-③-|
□②⑤□ |④-⑤-⑥-|
□□□□ |⑦-⑧-|
④⑧⑧① |⑨-⑩-⑪-|

□□□⑪
⑩□□□
□□□□
□□□⑨
57
□□□□ |①---|
□□□□ |②-③-④-|
□①①□ |⑤-⑥-⑦-|
□□□□ |⑧---|

□□□□
□④③②
□|||
□∧∧∧

⑤⑥⑦□
□||□
⑧∧∧□
□□□□

□78□
□543
□□□□
□□□□
58
②□□② |①---|
□□⑤④ |②---|
□⑥∧∧ |③-④⑤|
③①①③ |⑥---|

□□□□
□□65
□□□□
□□□□
59
②③④⑥ |①---|
|||□ |②-③-④-|
∧∧∧⑤ |⑤-⑥-|
□①①□ |⑦-⑧-⑨-|

□□□□
⑦⑧⑨□
|||□
∧∧∧□

345□
89□□
□□□□
□□□□
60
□□□□ |①-②-③-|
□□1□ |④-⑤-⑥-|
□□□□ |⑦-⑧-|
□③②① |⑨-⑩-⑪-|

∨∨∨□
|||□
④⑤⑥□
□□□□

□⑧□□
□⑪⑩⑨
567□
⑦□□□
61
①③□① |①---|
②⑤□④ |②---|
③□⑥② |③-④-|
⑤□②③ |⑤-⑥-|
62
①□□① |①---|
②□①□ |②-③-|
④③□□ |④---|
⑤⑤□③ |⑤---|
63
③⑥②② |①-②-|
□①④④ |③-④-|
⑤□⑥⑥ |⑤-⑥-|
□⑦⑧⑧ |⑦-⑧-|
64
②□②② |①-②-|
□□④④ |③-④-|
□①□□ |⑤-⑥-|
③□□□ |⑦-⑧-|

□□□□
□□□□
⑥⑦⑥⑥
□⑤⑧⑧
65
①③⑤⑦ |①②③④|
②④⑥⑧ |⑤⑥⑦⑧|
⑨⑪⑬⑮ |⑨⑩⑪⑫|
⑩⑫⑭⑯ |⑬⑭⑮⑯|
66
①⑦②⑥ |①②③④|
⑨③⑧④ |⑤⑥⑦⑧|
⑤⑮⑩⑯ |⑨⑩⑪⑫|
⑪⑬⑭⑫ |⑬⑭⑮⑯|
67
③②④⑥ |①---②-|
⑤①□② |--③---|
①□④⑤ |④---⑤-|
③□□⑥ |--⑥---|
68
③①□□ |①---②-|
□□□② |--③---|
①□□□ |④-⑤-|
③②□□ |⑥-⑦-|

□⑦⑤□
⑥④□□
□□□④
□⑦⑤⑥
69
□□□□ |----|
□□□□ |----|
□□□□ |----|
□□□□ |----|
70
□□□□ |----|
□□□□ |----|
□□□□ |----|
□□□□ |----|
71
□□□□ |----|
□□□□ |----|
□□□□ |----|
□□□□ |----|
最終更新:2023年07月01日 23:27