アットウィキロゴ
Blew My Mind
Sota F.

BASIC

Level: 5
BPM: 190
Notes: 266

1
口口口口 |----|
口口口口 |----|
口口口口 |----|
口口口口 |----|
2
口口口口 |----|
口口口口 |----|
口口口口 |----|
口口口口 |----|
3
①①②② |①---|
口口口口 |----|
口口口口 |②---|
口口口口 |----|
4
口口口口 |①---|
口①口口 |②---|
口②口口 |③---|
口③口口 |----|
5
②②①① |①---|
口口口口 |----|
口口口口 |②---|
口口口口 |----|
6
口口口口 |①---|
口口①口 |②---|
口口②口 |③---|
口口③口 |----|
7
口口口口 |①---|
口口口口 |----|
口口口口 |②---|
①①②② |----|
8
口①口口 |①---|
口②口口 |②---|
口③口口 |③---|
口口口口 |----|
9
口口口口 |①---|
口口口口 |----|
口口口口 |②---|
②②①① |----|
10
口口①口 |①---|
口口②口 |②---|
口口③口 |③---|
口口④口 |④---|
11
口口口口 |①---|
口口口口 |----|
①口口口 |----|
口①口口 |----|
12
口口口口 |①---|
口口口口 |----|
口口口① |----|
口口①口 |----|
13
口①口口 |①---|
①口口口 |----|
口口口口 |----|
口口口口 |----|
14
口口①口 |①---|
口口口① |----|
口口口口 |----|
口口口口 |----|
15
口口口口 |①---|
口①①口 |----|
口②口口 |②---|
口口口口 |----|
16
口口口口 |①---|
②口口口 |----|
①口口口 |②---|
口口口口 |----|
17
口口口口 |①---|
口①①口 |----|
口口②口 |②---|
口口口口 |----|
18
口口口口 |①---|
口口口② |----|
口口口① |②---|
口口口口 |----|
19
①②口口 |①---|
口口口口 |----|
口口口口 |②---|
口口口口 |----|
20
口口②① |①---|
口口口口 |----|
口口口口 |②---|
口口口口 |----|
21
口口口口 |①---|
①②口口 |----|
口口口口 |②---|
口口口口 |----|
22
④口口④ |①---|
③口口③ |②---|
②口口② |③---|
①口口① |④---|
23
口③口口 |①---|
口口②口 |②---|
口①口口 |③---|
口口口口 |----|
24
口口①口 |①---|
口②口口 |②---|
口口③口 |③---|
口口口口 |----|
25
口口口口 |①---|
口口口口 |②---|
③口口④ |③---|
①口口② |④---|
26
口②②口 |①---|
口①①口 |----|
口口口口 |②---|
口口口口 |----|
27
口口口口 |①---|
③口口口 |②---|
口口②口 |③---|
①口口口 |----|
28
口口口口 |①---|
口口口① |②---|
口②口口 |③---|
口口口③ |----|
29
口①①口 |①---|
口②②口 |----|
口口口口 |②---|
口口口口 |----|
30
口口口口 |①---|
②口口② |----|
口①①口 |----|
②口口② |②---|
31
①②③口 |①---|
口口口口 |②---|
口口口口 |③---|
口口口口 |----|
32
口口口口 |①---|
口③②① |②---|
口口口口 |③---|
口口口口 |----|
33
口口口口 |①---|
口口口口 |②---|
口③④口 |③---|
①口口② |④---|
34
口口口口 |①---|
①②③④ |②---|
口口口口 |③---|
口口口口 |④---|
35
①②③口 |①---|
口口口口 |②---|
口口口口 |③---|
口口口口 |----|
36
口口口口 |①---|
口③②① |②---|
口口口口 |③---|
口口口口 |----|
37
口口口口 |①---|
②口口② |----|
口口口口 |②---|
①口口① |----|
38
口口口口 |①---|
口口口口 |②---|
④③②① |③---|
口口口口 |④---|
39
口口②口 |①---|
口口口口 |----|
口口口口 |②---|
口口①口 |----|
40
口②口口 |①---|
口口口口 |----|
口口口口 |②---|
口①口口 |----|
41
口口口② |①---|
口口口口 |----|
口口口口 |②---|
口口口① |----|
42
②口口口 |①---|
口口口口 |----|
口口口口 |②---|
①口口口 |----|
43
口口口口 |①---|
口口口③ |②---|
口②口口 |③---|
口口口① |----|
44
口口口口 |①---|
③口口口 |②---|
口口②口 |③---|
①口口口 |----|
45
口②①口 |①---|
口④③口 |②---|
口口口口 |③---|
口口口口 |④---|
46
口口口口 |①---|
口口口口 |②---|
口②①口 |③---|
口口③口 |----|
47
口口口口 |①---|
口口口口 |----|
①口口② |②---|
①口口② |----|
48
①口口② |①---|
①口口② |----|
口口口口 |②---|
口口口口 |----|
49
口口口口 |①---|
口口口口 |----|
①①②② |②---|
口口口口 |----|
50
①①②② |①---|
口口口口 |----|
口口口口 |②---|
口口口口 |----|
51
口口口口 |①---|
口口口口 |----|
①口口② |②---|
口①②口 |----|
52
①口口② |①---|
口①②口 |----|
口口口口 |②---|
口口口口 |----|
53
口口口口 |①---|
①口口② |----|
口口口口 |②---|
①口口② |----|
54
口①②口 |①---|
口口口口 |----|
口①②口 |②---|
口口口口 |----|
55
口口④口 |①---|
口③口口 |②---|
口口口② |③---|
①口口口 |④---|
56
①口口口 |①---|
②口口口 |②---|
③口口口 |③---|
口口口口 |----|
57
④口口口 |①---|
口口③口 |②---|
口②口口 |③---|
口口口① |④---|
58
口口口① |①---|
口口口② |②---|
口口口③ |③---|
口口口口 |----|
59
口口口口 |①---|
口口口口 |----|
口口口口 |----|
口①①口 |----|
60
②口口② |①---|
口①①口 |----|
②口口② |②---|
口口口口 |----|
61
口口④口 |①---|
口③口口 |②---|
口口②口 |③---|
口①口口 |④---|
62
①口口口 |①---|
口口口③ |----|
口口口② |②---|
口口口口 |③---|
63
口口口① |①---|
③口口口 |----|
②口口口 |②---|
口口口口 |③---|
64
①口口口 |①---|
口口②口 |----|
口口口口 |②---|
口③口口 |③---|
65
口口口口 |①---|
口口口口 |②---|
④③②① |③---|
口口口口 |④---|
66
口①①口 |----|
口口口口 |①---|
口口口口 |②---|
②③口口 |③---|
67
口口口① |----|
口口①口 |①---|
口口口口 |②---|
口口③② |③---|
68
①口口口 |----|
②①口② |①---|
口口口口 |----|
②口口② |②---|
69
口④口口 |①---|
口口③口 |②---|
口②口口 |③---|
口口①口 |④---|
70
口口口① |①---|
③口口口 |----|
②口口口 |②---|
口口口口 |③---|
71
①口口口 |①---|
口口口③ |----|
口口口② |②---|
口口口口 |③---|
72
口口口① |①---|
口②口口 |----|
口口口口 |②---|
口口③口 |③---|
73
口口口口 |①---|
口口口口 |②---|
①②③④ |③---|
口口口口 |④---|
74
口①①口 |----|
口口口口 |①---|
口口口口 |②---|
口口③② |③---|
75
①口口口 |----|
口①口口 |①---|
口口口口 |②---|
②③口口 |③---|
76
口口口① |----|
口口①口 |①---|
口口口口 |----|
②口口② |②---|
77
③口口④ |①---|
口口口口 |②---|
口①②口 |③---|
口口口口 |④---|
78
口口口口 |①---|
①②③④ |②---|
①②③④ |③---|
口口口口 |④---|

accuracy: 100%
最終更新:2023年09月26日 02:57