アットウィキロゴ
Blew My Mind
Sota F.

ADVANCED

Level: 8
BPM: 190
Notes: 474

1
口口口口 |----|
口口口口 |----|
口口口口 |----|
口口口口 |----|
2
口口口口 |----|
口口口口 |----|
口口口口 |----|
口口口口 |----|
3
口⑤④口 |①---|
①口口② |②---|
口口口口 |③---|
口③口口 |④-⑤-|
4
口口口口 |--①-|
口①⑤口 |--②-|
口②③口 |③---|
④口口口 |④-⑤-|
5
口①口② |①---|
口口口口 |②---|
③口口口 |③---|
口⑤④口 |④-⑤-|
6
口口口口 |--①-|
口②③口 |--②-|
口①⑤口 |③---|
④口口口 |④-⑤-|
7
口①口② |①---|
③口口口 |②-③-|
口⑤⑥口 |④---|
口口④口 |⑤-⑥-|
8
口③②口 |--①-|
口口①④ |--②-|
口⑤口口 |③---|
口口口口 |④-⑤-|
9
⑥口口⑦ |①---|
④口口⑤ |②-③-|
②口口③ |④-⑤-|
口口①口 |⑥-⑦-|
10
口口口口 |--①-|
口⑤⑤口 |②-③-|
口口口口 |④---|
①②③④ |⑤---|
11
口口口口 |①---|
口口口口 |----|
①口口① |----|
口口口口 |----|
12
①口口① |①---|
口④⑤口 |----|
口口口口 |②-③-|
口②③口 |④-⑤-|
13
口口口口 |①---|
口口口口 |----|
①口口① |----|
口口口口 |----|
14
口①①口 |①---|
③口口② |----|
口口口口 |②-③-|
⑤口口④ |④-⑤-|
15
口③②① |①---|
口口口口 |②-③-|
口③②① |----|
口口口口 |----|
16
②口口③ |①---|
口口口口 |----|
④口口⑤ |②-③-|
口①①口 |④-⑤-|
17
口口口口 |①--②|
①②③口 |--③-|
口口口口 |----|
①②③口 |----|
18
①口口① |①---|
口③②口 |----|
口口口口 |②-③-|
口⑤④口 |④-⑤-|
19
口口口口 |①---|
②口口① |----|
②口口① |②---|
口口口口 |----|
20
②②①① |①---|
口口口口 |----|
口口口口 |②---|
口口口口 |----|
21
口口口口 |①---|
④口口③ |②---|
口口口口 |③---|
②口口① |④---|
22
口④④口 |①---|
口③③口 |②---|
口②②口 |③---|
口①①口 |④---|
23
口口口口 |①---|
①③口② |②---|
①口④② |③-④-|
口⑤口口 |⑤---|
24
口②口① |①-②-|
④口③口 |③-④-|
口⑥口⑤ |⑤-⑥-|
口口⑦口 |⑦---|
25
口口口② |①---|
口③口② |②---|
①口④口 |③-④-|
①⑤口口 |⑤---|
26
口⑧⑦口 |①-②-|
④口口③ |③-④-|
口⑥⑤口 |⑤-⑥-|
②口口① |⑦-⑧-|
27
口⑤④③ |①---|
②②口口 |②---|
口口口口 |③-④-|
口口①① |⑤---|
28
口口口口 |①-②-|
④⑥⑤③ |③-④-|
口口口口 |⑤-⑥-|
⑧②①⑦ |⑦-⑧-|
29
口口口口 |--①-|
口口口口 |②-③-|
①②③④ |④---|
口⑤⑤口 |⑤---|
30
②①①② |①---|
口口口口 |----|
口②②口 |----|
口口口口 |②---|
31
口⑤口口 |①-②-|
③口⑥④ |③-④-|
口⑦口口 |⑤-⑥-|
①口⑧② |⑦-⑧-|
32
①口④④ |①-②-|
口②口口 |③---|
口口③口 |④---|
⑤⑤口口 |⑤---|
33
②口口③ |①---|
②口口③ |②---|
④口口① |③---|
④口口① |④---|
34
口口⑦口 |①-②-|
口⑥⑤口 |③-④-|
口④③口 |⑤-⑥-|
口②①口 |⑦---|
35
口⑦⑧口 |①-②-|
⑤口口⑥ |③-④-|
口③④口 |⑤-⑥-|
①口口② |⑦-⑧-|
36
①口口④ |①-②-|
口②⑤口 |③---|
口⑥③口 |④-⑤-|
口口口口 |⑥---|
37
②②④④ |①---|
口口口口 |②---|
口口口口 |③---|
①①③③ |④---|
38
⑤⑥⑦口 |①-②-|
①口口② |③-④-|
⑤⑥⑦口 |⑤-⑥-|
口③④口 |⑦---|
39
口口口口 |①---|
口④②口 |②---|
口口口口 |③---|
③口口① |④---|
40
③口口① |①---|
口口口口 |②---|
④口口② |③---|
口口口口 |④---|
41
口口口口 |①---|
④口口② |②---|
口口口口 |③---|
口③①口 |④---|
42
③口口① |①---|
口④②口 |②---|
口口口口 |③---|
口口口口 |④---|
43
口②①口 |①-②-|
⑥口口⑤ |③-④-|
口口口口 |⑤-⑥-|
④⑧⑦③ |⑦-⑧-|
44
④口⑤口 |①-②-|
口⑧①口 |③-④-|
口②⑦③ |⑤-⑥-|
⑥口口口 |⑦-⑧-|
45
口⑧⑤① |①-②-|
④口口口 |③-④-|
口口口⑦ |⑤-⑥-|
⑥②③口 |⑦-⑧-|
46
口口口口 |--①-|
口⑤⑥口 |②-③-|
口③④口 |④-⑤-|
口①②口 |⑥---|
47
①口口④ |①--②|
⑤口口② |--③-|
③口口⑥ |④--⑤|
口口口口 |--⑥-|
48
①⑤⑤口 |①--②|
口口口② |--③-|
③口口口 |④---|
口④④口 |⑤---|
49
口口口口 |①--②|
口④①口 |--③-|
口②⑤口 |④--⑤|
⑥口口③ |--⑥-|
50
口⑤⑤口 |①--②|
口口①口 |--③-|
口②口口 |④---|
口④④③ |⑤---|
51
①口口④ |①--②|
⑤口口② |--③-|
口③⑥口 |④--⑤|
口口口口 |--⑥-|
52
①⑤⑤口 |①--②|
口口口② |--③-|
口③口口 |④---|
④口口④ |⑤---|
53
⑤口口② |①--②|
①口口④ |--③-|
口口口口 |④--⑤|
口③⑥口 |--⑥-|
54
口口口② |①--②|
①⑤④口 |--③-|
口⑦⑥口 |④-⑤-|
口③口口 |⑥-⑦-|
55
②②口口 |①---|
口口口口 |----|
口口口口 |②---|
口口①① |----|
56
口口口① |①---|
口口①口 |----|
②③④⑤ |②-③-|
口口口口 |④-⑤-|
57
口口②② |①---|
口口口口 |----|
口口口口 |②---|
①①口口 |----|
58
①口口口 |①---|
口①口口 |----|
⑤④③② |②-③-|
口口口口 |④-⑤-|
59
②口③口 |①---|
口④口⑤ |②-③-|
口口口口 |--④-|
口口①① |⑤---|
60
口口口口 |①-②-|
口口口口 |③---|
①②③口
口口口口

④口口④
⑤口口⑤
⑥口口⑥ |④--⑤|
口口口口 |--⑥-|
61
口口②口 |①---|
口口口口 |②-③-|
口③口口
口①①口

⑤口口口
口口口④
口口口口 |--④-|
口口⑥口 |⑤-⑥-|
62
口④口⑤ |----|
口口口口 |①---|
②口③口 |②-③-|
①①口口 |④-⑤-|
63
口口②口 |--①-|
⑥口⑤口 |②---|
口口口口 |③-④-|
①④口③ |⑤-⑥-|
64
④口③① |--①-|
口⑤口口 |②-③-|
口口⑥口 |--④-|
②口口口 |⑤-⑥-|
65
口⑤口① |①---|
②口口⑥ |②-③-|
④口口口 |--④-|
口口③口 |⑤-⑥-|
66
口④口⑤ |----|
口口口口 |①---|
②口③口 |②-③-|
口①①口 |④-⑤-|
67
口口①口 |--①-|
⑥口⑤口 |②---|
口口口口 |③-④-|
②④口③ |⑤-⑥-|
68
①口口口 |--①-|
④②口④ |②-③-|
④口③④ |----|
口口口口 |④---|
69
口口②口 |①---|
口口口口 |②-③-|
口③口口
口①①口

⑤口口口
口口口④
口口口口 |--④-|
口口⑥口 |⑤-⑥-|
70
口④口⑤ |----|
口口口口 |①---|
②口③口 |②-③-|
①①口口 |④-⑤-|
71
口口②口 |--①-|
⑥口⑤口 |②---|
口口口口 |③-④-|
①④口③ |⑤-⑥-|
72
④口③① |--①-|
口⑤口口 |②-③-|
口口⑥口 |--④-|
②口口口 |⑤-⑥-|
73
口⑥口① |①-②-|
口口②⑦ |③-④-|
⑤③口口 |--⑤-|
④口口口 |⑥-⑦-|
74
口④口⑤ |----|
口口口口 |①---|
②口③口 |②-③-|
口①①口 |④-⑤-|
75
口口①口 |--①-|
⑥口⑤口 |②---|
口口口口 |③-④-|
②④口③ |⑤-⑥-|
76
①④④口 |--①-|
口②口口 |②-③-|
口口③口 |----|
口口口口 |④---|
77
⑤口口⑥ |①--②|
口口口口 |--③-|
①②③④ |-④--|
口口口口 |⑤-⑥-|
78
⑥⑥⑦⑦ |①--②|
①②③口 |--③-|
④④⑤⑤ |④-⑤-|
①②③口 |⑥-⑦-|

accuracy: 100%
最終更新:2023年09月26日 02:57