アットウィキロゴ
Blew My Mind
Sota F.

EXTREME

Level: 10.4
BPM: 190
Notes: 802

1
口口口口 |----|
口口口口 |----|
口口口口 |----|
口口口口 |----|
2
③④⑤口 |----|
①口口② |----|
①口口② |①-②-|
口口口口 |③④⑤-|
3
口口口口 |①---|
口③口口 |②-③-|
口口②口
①口①口

口⑤口口
口口口口
⑥口口口 |④---|
口④⑥④ |⑤-⑥-|
4
口⑥②口 |--①-|
③口⑤口 |②-③-|
口④①口 |④---|
①口口④ |⑤-⑥-|
5
口口口③ |①---|
口口口口 |②-③-|
②口口①
口①口口

口口⑥口
⑤口口口
口口口口 |④-⑤-|
④⑦④⑦ |⑥-⑦-|
6
①⑦⑥④ |--①-|
口②③口 |②-③-|
①口口④ |④---|
⑤口口⑤ |⑤-⑥⑦|
7
①口口口 |①---|
口口口口 |②-③-|
③口口口
口口②口

⑦口口④
口④⑦口
口口口⑥ |④-⑤-|
口⑤口口 |⑥-⑦-|
8
⑤④⑤④ |--①-|
②⑥口口 |②-③-|
口口③口 |④---|
①口口口 |⑤-⑥-|
9
口口口③ |①---|
②口口口 |②-③-|
口口口①
口①口口

⑥口口口
口口口⑤
口口口口 |④-⑤-|
④⑦④⑦ |⑥-⑦-|
10
口⑧⑧口 |--①②|
口②①口 |③④⑤-|
口④③⑦ |⑥-⑦-|
⑥口⑤口 |⑧---|
11
③口口口 |①--②|
②⑤口口 |--③-|
①口口口 |--④-|
口口④口 |--⑤-|
12
口⑤⑦③ |①--②|
口口口② |--③-|
口口口① |④-⑤-|
口④⑥口 |⑥-⑦-|
13
④口⑧口 |①②-③|
③⑦⑤口 |--④-|
①⑨②口 |-⑤⑥-|
口⑥口口 |⑦-⑧⑨|
14
口⑤⑦③ |①--②|
口口口② |--③-|
口口口① |④-⑤-|
口④⑥口 |⑥-⑦-|
15
③口口⑤ |①--②|
②④口③ |--③-|
①口④② |--④-|
⑤口口① |--⑤-|
16
⑤⑦⑤⑦ |-①-②|
②口①③ |--③-|
③②口① |④-⑤-|
⑥④⑥④ |⑥-⑦-|
17
口口口口 |①②-③|
③②③口 |--④-|
口口①口
口④口④

口⑦⑧口
口⑨口⑦
口⑤口口 |-⑤⑥-|
口口⑥口 |⑦-⑧⑨|
18
③⑤⑦② |①--②|
④口口⑥ |--③-|
④口①⑥ |④-⑤-|
②⑦⑤③ |⑥-⑦-|
19
⑨口⑪⑩ |①-②③|
口③②口 |④-⑤-|
⑤①④⑧ |⑥⑦⑧-|
口口⑦⑥ |⑨-⑩⑪|
20
口⑩口口 |①-②③|
口⑧⑨① |④-⑤-|
④⑥⑦⑪ |⑥⑦⑧⑨|
②③口⑤ |⑩-⑪-|
21
①口③② |①-②③|
口⑧⑧④ |④-⑤⑥|
⑤⑥口口 |⑦-⑧-|
⑦⑨⑨口 |⑨---|
22
③①②④ |①---|
①④③② |②---|
②③④① |③---|
④口口③ |④---|
23
⑥②口口 |①-②-|
⑨⑧⑦口 |③-④-|
④口口③ |⑤-⑥-|
口①①⑤ |⑦⑧⑨-|
24
⑦③④⑧ |①-②-|
⑪⑪口② |③④⑤⑥|
⑨⑤⑥⑩ |⑦⑧⑨⑩|
①口⑫⑫ |⑪-⑫-|
25
口口②⑥ |--①-|
口⑦⑧⑨ |②-③④|
⑤④③口 |⑤-⑥-|
口①口口 |⑦⑧⑨-|
26
④口③口 |--①-|
②⑤口口 |②-③-|
口口⑥口 |④-⑤-|
口口①⑦ |⑥-⑦-|
27
口口③⑤ |--①-|
②口口口 |②-③-|
⑥⑦⑧⑨ |④-⑤-|
④①口口 |⑥⑦⑧⑨|
28
③④⑤口 |--①-|
①⑨⑨② |②-③④|
口口口口 |⑤-⑥⑦|
口⑧⑦⑥ |⑧-⑨-|
29
④口口⑥ |--①-|
①口口③ |②-③-|
口⑤⑦口 |④-⑤-|
②口口口 |⑥-⑦-|
30
⑥口口⑥ |①---|
②③④⑤ |②-③-④-|
①⑥⑥① |⑤---|
②③④⑤ |⑥---|
31
⑪②④口 |①-②-|
⑦口口⑥ |③-④-|
①⑨口③ |⑤-⑥⑦|
⑤⑤⑧⑩ |⑧⑨⑩⑪|
32
口⑥⑨④ |①②③-|
口口①⑩ |④-⑤-|
②口口③ |⑥-⑦-|
⑤⑧⑦口 |⑧⑨-⑩|
33
②⑩口⑦ |①-②③|
口⑥④口 |-④⑤-|
口①⑧口 |⑥⑦-⑧|
⑤⑨口③ |⑨-⑩-|
34
①口②口 |①-②-|
⑤⑥⑦⑧ |③-④-|
⑨⑩⑪口 |⑤⑥⑦⑧|
③口④口 |⑨⑩⑪-|
35
⑤②⑩④ |①-②-|
⑤⑦口⑥ |③-④-|
口⑨口口 |⑤-⑥⑦|
⑪①⑧③ |⑧⑨⑩⑪|
36
⑨②口④ |①②③-|
⑥⑩口口 |④-⑤-|
口口⑤① |⑥-⑦-|
口⑦⑧③ |⑧⑨-⑩|
37
⑧③⑤⑩ |①-②③|
口口口⑥ |-④⑤-|
④口口① |⑥⑦-⑧|
口⑦⑨② |⑨-⑩-|
38
⑦⑦⑦口 |①-②-|
⑦⑦④口 |③-④-|
⑦②⑦③ |⑤-⑥-|
①⑤口⑥ |⑦---|
39
口口口⑤ |①--②|
口口口② |--③-|
口④口口 |-④--|
①口③口 |⑤---|
40
②口⑤口 |①-②③|
口③口口 |--④-|
口口口① |-⑤--|
⑥口④口 |⑥---|
41
⑥口口口 |①-②③|
口③②口 |--④-|
⑤口口口 |-⑤--|
口①口④ |⑥---|
42
口口⑤① |①-②③|
④口口⑤ |--④-|
口②③口 |-⑤--|
⑥口口口 |⑥---|
43
口口⑥③ |①②-③|
⑤①②口 |-④⑤⑥|
口口口口
口口口④

⑩口口口
口口⑫⑨
口⑧⑦口 |-⑦⑧⑨|
口口⑪口 |⑩⑪-⑫|
44
口口③② |-①-②|
口④口口 |-③④⑤|
口口口①
口口口⑤

⑦口口口
口口⑨⑧
口口⑥⑪ |-⑥⑦⑧|
⑩口口口 |-⑨⑩⑪|
45
⑧②⑦③ |-①②③|
⑬⑩口⑪ |④⑤⑥⑦|
⑥口⑨口 |⑧⑨⑩⑪|
⑫④①⑤ |⑫-⑬-|
46
⑧②⑨③ |-①②③|
⑫口⑤口 |④⑤⑥⑦|
⑥⑩口⑪ |⑧⑨⑩⑪|
口④①⑦ |⑫---|
47
口②⑤口 |①--②|
⑤口口② |--③-|
口⑥③口 |④--⑤|
①口口④ |--⑥-|
48
⑤②口⑦ |①--②|
口口口② |--③-|
④口③⑥ |④-⑤-|
①口口口 |⑥-⑦-|
49
口⑦③口 |①②-③|
⑦口口③ |--④-|
口②⑥口 |⑤⑥-⑦|
④①⑤⑧ |--⑧-|
50
口口③⑤ |①②-③|
口⑥⑨③ |--④-|
⑧②口⑦ |⑤⑥⑦-|
④①口口 |⑧-⑨-|
51
②⑤②⑤ |①--②|
②口口⑤ |--③-|
口⑥③口 |④--⑤|
④③⑥① |--⑥-|
52
②口②口 |①--②|
②④⑦⑤ |--③-|
⑥口③口 |④-⑤-|
口③口① |⑥-⑦-|
53
⑦③⑦③ |①②-③|
口④⑧口 |--④-|
⑦②⑥③ |⑤⑥-⑦|
①⑧④⑤ |--⑧-|
54
⑨③口③ |①②-③|
口④口⑤ |--④-|
⑥②口③ |⑤⑥⑦-|
①⑧④⑦ |⑧-⑨-|
55
口口④③ |①-②-|
②口⑥⑤ |③④⑤⑥|
口口口口
①口口口

口口口口
口口口口
⑧⑨口口 |--⑦-|
⑩⑪口⑦ |⑧⑨⑩⑪|
56
①①⑦口 |-①--|
⑨口③② |②③④⑤|
口口⑤④ |⑥-⑦-|
⑧口口⑥ |⑧-⑨-|
57
③⑥⑨② |①-②-|
口④⑪⑩ |③④⑤⑥|
⑤⑦口口 |-⑦--|
口⑦①⑧ |⑧⑨⑩⑪|
58
②⑤口⑦ |-①--|
⑨③口口 |②③④⑤|
⑥口①⑧ |⑥-⑦-|
④口①口 |⑧-⑨-|
59
②口⑤口 |①---|
口口口口 |②-③-|
口③口④ |--④-|
口口口① |⑤---|
60
口口口口 |①-②-|
①口①口 |③---|
②口②口
③口③口

⑤⑥⑥⑥
口口⑥⑥
口⑥口⑥ |④--⑤|
口口口④ |--⑥-|
61
⑤口口⑤ |①---|
②②口⑥ |②-③-|
①⑥④口 |--④-|
④①③③ |⑤-⑥-|
62
④口口⑤ |----|
口④⑤口 |①---|
②口口③ |②-③-|
口②③① |④-⑤-|
63
⑥②②⑥ |--①-|
③④⑤口 |②---|
口③④⑤ |③-④-|
①口口① |⑤-⑥-|
64
口③①口 |--①-|
④口④① |②-③-|
②⑤口⑤ |--④-|
⑥②③⑥ |⑤-⑥-|
65
①口②① |①---|
口②口口 |②-③-|
口口③口
口③口口

⑥⑤口口
口口⑥⑤
④⑥口口 |--④-|
口口④⑥ |⑤-⑥-|
66
口④⑤口 |----|
④口口⑤ |①---|
②口口③ |②-③-|
①②③口 |④-⑤-|
67
①⑤⑥① |--①-|
口③④口 |②---|
⑤②②⑥ |③-④-|
③口口④ |⑤-⑥-|
68
①④④① |--①-|
③口口③ |②-③-|
口①②口 |----|
③④④口 |④---|
69
①口⑥② |①---|
②⑤口④ |②-③-|
⑤口④③ |--④-|
③⑥口① |⑤-⑥-|
70
口⑤口④ |----|
③⑤④口 |①---|
口③口② |②-③-|
①口②口 |④-⑤-|
71
口⑤②⑥ |--①-|
⑤口④口 |②---|
口③①④ |③-④-|
③①⑥② |⑤-⑥-|
72
①④①口 |--①-|
④口⑤③ |②-③-|
②⑤口⑥ |--④-|
③口⑥② |⑤-⑥-|
73
①口口① |①-②-|
口④口③ |③-④-|
③口②口
口②口④

⑦⑦⑦⑦
⑥口⑤口
口口口⑥ |--⑤-|
⑤口口口 |⑥-⑦-|
74
口口⑤口 |----|
口④口③ |①---|
②①①口 |②-③-|
④②③⑤ |④-⑤-|
75
①⑥口① |--①-|
口④③⑤ |②---|
④②②③ |③-④-|
⑥口⑤口 |⑤-⑥-|
76
③口③② |--①-|
①口④口 |②-③-|
口①②口 |----|
④③口③ |④---|
77
口⑨⑧④ |①②-③|
口⑤口③ |--④-|
口②⑥① |-⑤⑥-|
⑦口口口 |⑦-⑧⑨|
78
②口口③ |①--②|
①口口口 |--③-|
①口口口
口③②口

口⑦⑦口
⑧④④⑥
⑧④④⑥ |④-⑤-|
⑤口口⑤ |⑥⑦⑧-|

accuracy: 100%
最終更新:2023年09月26日 03:23