アットウィキロゴ
BPM:163
1
□□□⑥ |①--②③④|
⑤④③② |⑤-⑥-|
□□⑥□ |⑦-⑧-|
□①①□ |⑨-⑩-|

⑧□⑨□
□□□□
□⑧□⑦
⑩⑩□□
2
④⑦⑦⑦ |①-②-|
⑥⑥⑥③ |③-④-|
②⑤⑤⑤ |⑤-⑥-|
□□□① |⑦---|
3
⑬□□⑭ |--①②|
⑪⑤⑥⑫ |③④⑤⑥|
⑨③④⑩ |⑦⑧⑨⑩|
⑦①②⑧ |⑪⑫⑬⑭|
4
⑦□②⑧ |①-②-|
⑤□④⑥ |③-④-|
□③②⑧ |⑤-⑥-|
□①④⑥ |⑦-⑧-|
5
□①②□ |①-②-|
⑤□⑤□ |③-④-|
③⑥□⑥ |⑤-⑥-|
⑦□⑦④ |⑦---|
6
②④⑤□ |①-②-|
⑧⑥□① |③-④-|
②④⑦□ |⑤-⑥-|
⑧⑥□③ |⑦-⑧-|
7
⑤⑧⑧② |①-②③|
□⑥③□ |④-⑤⑥|
□④⑦□ |⑦-⑧-|
⑨□①⑨ |⑨---|
8
②④⑦□ |①-②-|
⑥⑧□⑤ |③-④-|
④②□③ |⑤-⑥-|
⑧⑥①□ |⑦-⑧-|
9
⑧④□□ |①②③④|
□□③⑦ |⑤⑥⑦⑧|
⑥②□□ |⑨-⑩-|
□□①⑤ |⑪---|

□□⑩□
□⑩□□
□□□⑨
⑪□⑪□
10
□⑦④② |①-②-|
⑤□⑧⑥ |③-④-|
③□②④ |⑤-⑥-|
□①⑥⑧ |⑦-⑧-|
11
□□④⑧ |①②③④|
⑦③□□ |⑤⑥⑦⑧|
□⑨②⑥ |⑨---|
⑤①⑨□ |⑩-⑪-|

□□□□
□⑪□□
⑩□□□
□□□□
12
□④①⑥ |①---|
□□③□ |②-③-|
□□□② |④---|
⑤□□□ |⑤-⑥-|
13
④□□□ |①---|
①①⑤□ |②---|
□②②□ |③---|
□□③③ |④-⑤-|
14
□③□□ |①---|
□□□□ |--②-|
③①□② |③---|
□□□□ |④-⑤-|

□□□□
□□□□
□⑤□□
□□④□
15
□□□□ |①---|
□□①□ |----|
□□③□ |----|
②□□□ |②-③-|
16
□①□□ |①---|
□④⑦□ |②-③-|
③□□⑥ |④-⑤-|
□②⑤□ |⑥-⑦-|
17
②□□② |①---|
□□□□ |②---|
□③③□ |③---|
①□□① |----|
18
⑤④□⑤ |①---|
①□③① |②-③-|
②□□□ |④---|
□□□□ |⑤---|
19
□□□□ |①---|
②□□② |----|
□①①□ |②--③|
②□□② |④-⑤-|

□□□□
□□④□
□⑤□□
□③□□
20
②⑤⑤① |①-②③|
□③□□ |④-⑤-|
④□□① |⑥---|
□⑥⑥□ |----|
21
①⑥⑥② |①-②③|
□□③□ |④-⑤-|
①□□④ |⑥---|
□⑤⑤□ |----|
22
□③③□ |①---|
③②□③ |②---|
②①①② |③---|
①□②① |④-⑤-|

④□□□
□□□□
□□□□
□□□⑤
23
③②③② |①---|
□③□③ |②---|
②①②① |③---|
①□①□ |----|
24
□①②□ |①---|
①③③② |②---|
②③③① |③---|
□②①□ |----|
25
□①③□ |①---|
③②②① |②---|
①②②③ |③---|
□③①□ |----|
26
□③□□ |①---|
□②①⑥ |②---|
⑤①②□ |③-④-|
□□④□ |⑤-⑥-|
27
④□□③ |①-②③|
□②⑦□ |④⑤⑥⑦|
□⑥⑤□ |⑧---|
①⑧⑧① |----|
28
④①①□ |①---|
④□③□ |②-③-|
①②③① |④---|
□②□□ |⑤-⑥-|

□⑥⑥□
□□□□
□□□⑤
□□□⑤
29
③□□② |①-②-|
③④□② |③-④-|
①④⑤□ |⑤---|
①□⑤□ |⑥-⑦-|

□⑥□□
□□⑦□
⑥□□□
□⑦□□
30
③□□⑤ |①---|
②③⑤④ |②-③-|
□②④① |④-⑤-|
□□□① |⑥-⑦-|

□□□□
□□□□
⑥□□⑦
⑥□□⑦
31
□①①④ |①---|
□□③④ |②-③-|
⑥②③⑤ |④---|
⑥②□⑤ |⑤-⑥-|
32
□①①③ |①---|
②④④③ |②-③-|
□⑤□□ |④---|
⑤②⑥⑥ |⑤-⑥-|
33
③③③② |①-②-|
①④④④ |③-④-|
⑤⑤⑤② |⑤---|
□①□□ |⑥-⑦-|

□□□□
⑥□□□
□□□⑦
⑥□□⑦
34
□②③□ |①---|
□□④③ |②-③-|
②□□□ |④---|
④①①□ |⑤-⑥-|

□□□□
□⑥□□
□⑥⑤□
□□⑤□
35
①□□□ |①---|
①□□□ |----|
□□□□ |----|
□□□□ |----|
36
①②□③ |①---|
□①□① |----|
①□①□ |----|
③□②① |②-③-|
37
②□□□ |①---|
①□①③ |②--③|
②①□① |----|
□□□③ |----|
38
③□②① |①---|
□①□□ |②--③|
□③①② |----|
①□□□ |----|
39
□□□⑥ |①--②③④|
⑤④③② |⑤-⑥-|
□□⑥□ |⑦-⑧-|
□①①□ |⑨-⑩-|

⑧□⑨□
□□□□
□⑧□⑦
⑩⑩□□
40
④⑦⑦⑦ |①-②-|
⑥⑥⑥③ |③-④-|
②⑤⑤⑤ |⑤-⑥-|
□□□① |⑦---|
41
②□□□ |①-②③|
□□⑤③ |④-⑤⑥|
④⑥□□ |⑦-⑧⑨|
□□⑦① |⑩⑪⑫⑬|

⑫□⑨⑬
□⑧□□
□□□⑪
⑩□□□
42
□①⑥⑧ |①-②-|
③□②④ |③-④-|
⑤□⑧⑥ |⑤-⑥-|
□⑦④② |⑦-⑧-|
43
⑤①□□ |①②③④|
□□②⑥ |⑤⑥⑦⑧|
⑦③□□ |⑨-⑩-|
□□④⑧ |⑪---|

□⑪□⑪
⑨□□□
□□⑩□
□⑩□□
44
⑧⑥①□ |①-②-|
④②□③ |③-④-|
⑥⑧□⑤ |⑤-⑥-|
②④⑦□ |⑦-⑧-|
45
□□①⑤ |①②③④|
⑥②□□ |⑤⑥⑦⑧|
□□③⑦ |⑨---|
⑧④□□ |⑩---|

⑩□⑩□
□□□□
□⑩□□
□□⑨□
46
⑥②⑧④ |①-②-|
⑧④⑥② |③-④-|
□□□□ |⑤-⑥-|
⑤①⑦③ |⑦-⑧-|
47
⑧④□⑦ |①②③④|
⑩□⑪③ |⑤⑥⑦⑧|
②□⑤⑪ |⑨-⑩-|
⑥⑩⑨① |⑪---|
48
③⑦①⑤ |①-②-|
□□□□ |③-④-|
⑥②④⑧ |⑤-⑥-|
④⑧⑥② |⑦-⑧-|
49
①□⑥□ |①②③④|
⑨⑤②□ |⑤⑥⑦⑧|
⑦③□□ |⑨---|
⑨□⑧④ |----|
50
□□⑥□ |①-②③|
□①①④ |④-⑤-|
□□□③ |⑥---|
□⑤□② |⑦-⑧-|

□□□⑧
□⑦□□
□□□□
□□□□
51
②□⑤□ |①-②③|
③□□□ |④-⑤-|
④①①□ |⑥---|
□⑥⑥□ |⑦⑧⑨⑩|

□□□□
□□□⑩
□⑧⑨□
⑦□□□
52
⑤①□□ |①---|
□④③□ |②③④⑤|
□□□② |⑥-⑦-|
□□□□ |⑧-⑨-|

□⑨□⑥
⑦□□□
□□□□
□□⑧□
53
④□②□ |①-②-|
□□□□ |③-④-|
□③□□ |⑤-⑥⑦|
□□□① |⑧-⑨-|

□□□□
□⑧⑦⑥
□□□□
□⑤⑤⑨
54
⑤③□④ |①-②-|
①⑤□⑥ |③-④-|
□⑦②□ |⑤-⑥-|
①□⑧□ |⑦-⑧-|
55
□□□⑥ |①-②③|
③⑦②□ |④⑤⑥⑦|
⑤□⑧□ |⑧-⑨⑩|
①①□④ |⑪-⑫-|

⑨⑩⑪□
□□□□
□□□□
⑫□□□
56
□□□□ |①②③④|
②⑥⑤① |⑤⑥⑦⑧|
□④□□ |⑨⑩⑪⑫|
□⑧③⑦ |⑬⑭⑮⑯|

⑫⑭⑪⑮ 
⑯□□□
⑩□⑬⑨
□□□□
57
⑧□□□ |①②③④|
□⑥⑤① |⑤⑥⑦⑧|
□④□⑦ |⑨---|
②⑨⑨③ |----|
58
⑥②③□ |①-②-|
④⑤⑤① |③-④-|
①③②④ |⑤---|
□□⑦□ |⑥-⑦-|
59
□④③② |①-②③|
□□□① |④-⑤-|
□□□□ |⑥⑦⑧⑨|
①□□⑤ |⑩⑪⑫⑬|

□□□□
⑩⑪⑫⑬
⑥⑦⑧⑨
□□□□
60
④②③□ |①---|
□④□⑤ |②---|
②□⑤③ |③---|
③①①② |④-⑤-|
61
③③③③ |①---|
②□②□ |②---|
□②□② |③---|
□①①□ |----|
62
□□□□ |①---|
③②③□ |②---|
②①②□ |③---|
③②③□ |----|
63
□①②① |①---|
□②③② |②---|
□①②① |③---|
□□□□ |----|
64
③①②⑥ |①---|
①□□② |②---|
②□□① |③-④-|
⑤②①④ |⑤-⑥-|
65
⑤□②□ |①-②③|
⑦①①⑥ |④⑤⑥⑦|
③①①④ |⑧---|
□⑧⑧□ |----|
66
④①①□ |①---|
④□③□ |②-③-|
①②③① |④---|
□②□□ |⑤-⑥-|

□⑥⑥□
□□□□
□□□⑤
□□□⑤
67
③□□② |①-②-|
③④□② |③-④-|
①④⑤□ |⑤---|
①□⑤□ |⑥-⑦-|

□⑥□□
□□⑦□
⑥□□□
□⑦□□
68
④□□⑥ |①---|
④③□⑥ |②-③-|
⑤③②① |④---|
⑤□②① |⑤-⑥-|
69
⑤②①⑦ |①-②-|
⑤④③⑦ |③-④-|
⑥③④⑤ |⑤---|
⑥①②⑤ |⑥-⑦-|
70
③①④⑥ |①---|
③④①⑥ |②-③-|
⑤①④② |④---|
⑤□□② |⑤-⑥-|
71
②③□⑦ |①-②-|
③□④⑦ |③-④-|
⑥④□⑤ |⑤---|
⑥□⑤① |⑥-⑦-|
72
④③□□ |①---|
③①□□ |②-③-|
□□①② |④---|
□□②④ |⑤-⑥-|

□□□□
□⑥□□
⑤⑥□□
⑤□□□
73
□③①□ |①---|
□③①□ |----|
□□②□ |②---|
□□②□ |③---|
74
④□③① |①---|
④□③① |②-③-|
①②□④ |④---|
①②□④ |⑤-⑥-|

□□□□
□□□□
⑥□□□
□□⑤□
75
□③③③ |①-②-|
④④④① |③-④-|
□⑤⑤⑤ |⑤---|
②□□□ |⑥-⑦-|

⑥□□□
□□□⑦
⑥□□□
□□□⑦
76
□□□□ |①---|
□②③□ |②-③-|
□②③□ |④-⑤-|
①①□□ |⑥-⑦-|

④□□⑤
④□□⑤
⑥□□⑦
⑥□□⑦
77
④①①④ |①---|
④③□④ |②-③-|
⑤③②⑥ |④---|
⑤□②⑥ |⑤-⑥-|
78
④①①④ |①---|
④③②④ |②-③-|
⑥③②□ |④---|
□□⑤□ |⑤-⑥-|
79
□③③③ |①-②-|
④④④□ |③-④-|
□⑤⑤⑤ |⑤---|
②□□① |⑥-⑦-|

⑥□□□
□□□⑦
⑥□□□
□□□⑦
80
□④③□ |①---|
④②③□ |②-③-|
□②□④ |④---|
①①④□ |⑤-⑥-|

□□□⑥
□□□□
□□⑥□
⑤⑤□□
81
①□□□ |①---|
□□□① |----|
①□□□ |----|
□□□① |----|
82
□□□① |①---|
①□①□ |----|
□①□① |----|
①□□□ |②-③-|

□□□□
□□③□
②□③□
②□□□
83
□①□□ |①---|
□□□① |----|
□①□□ |----|
□□□□ |----|
最終更新:2025年01月03日 18:46