アットウィキロゴ

Insanity: Luna / BEMANI Sound Team "SYUNN"
BPM:196
Notes:759

1
□①①□|①---|
①∧<①|----|
①<∧∧|----|
□①<□|----|

2
□□□□|----|
□□□□|----|
□□□□|----|
□□□□|----|

3
□□□□|----|
□□□□|----|
□□□□|----|
□□□□|----|

4
□11□|①---|
1□□1|----|
1□□□|----|
□1□□|----|

5
□③□□|①-②-|
□□④□|③-④-|
□②□□|⑤-⑥-|
>□□①|⑦-⑧-|

⑥□□□
⑧□□□
□□⑦□
□⑤□□

6
□□①□|①---|
□⑤□②|②-③-|
□③□⑦|④-⑤-|
④⑥□4|⑥-⑦-|

7
□□□③|①-②-|
①□□<|③-④-|
□④□□|⑤-⑥-|
□□②⑤|⑦-⑧-|

□□□□
□⑥□⑧
□□⑦□
□□□□

8
□□①□|①---|
4□②□|②-③-|
□③□□|④---|
④□□④|----|

9
□□□□|①---|
□□>①|----|
①<>①|----|
>①①<|----|

10
□□□□|①---|
□□□1|----|
1②□1|②---|
□11□|----|

11
>①①∨|①---|
①<∧①|----|
①<>①|----|
□□□□|----|

12
□11□|①---|
1□④1|----|
1③②1|--②---|
□□□□|--③----④----|

13
□>①∨|①---|
□□□①|----|
□□∨①|----|
>①①∧|----|

14
□□1□|①---|
□□②1|----|
□□□1|-----②------|
□11□|----|

15
>①①<|①---|
①<□①|----|
①□□∧|----|
∧①<□|----|

16
□11□|①---|
1□□1|----|
1②②□|②---|
②1□②|----|

17
□⑦③②|①-②③|
④①⑥⑤|④-⑤⑥|
□□⑨⑧|⑦-⑧⑨|
⑩①⑫⑪|⑩-⑪⑫|

18
②⑤⑧⑪|①-②③|
③⑥⑨⑫|④-⑤⑥|
①□□⑦|⑦-⑧⑨|
□④□⑩|⑩-⑪⑫|

19
⑪⑫⑦⑩|①-②③|
⑧⑨□□|④-⑤⑥|
⑤⑥④□|⑦-⑧⑨|
②③①□|⑩-⑪⑫|

20
□□⑩⑨|①-②③|
⑦□④①|④-⑤⑥|
□⑧⑥③|⑦---⑧-|
⑦□⑤②|--⑨-⑩-|

21
⑤□□⑦|①---②-|
④⑤③⑥|③---④-|
①□⑦②|⑤---⑥-|
□①③□|⑦---⑧-|

□□□□
□□□□
⑧□□□
□□□□

22
⑤①③⑦|①---②-|
⑤⑧⑦□|③---④-|
□①□③|⑤---⑥-|
□④⑥②|⑦---⑧-|

23
□②③□|①-②-③-|
>□□①|④-⑤-⑥-|
④□①⑤|⑦-⑧-⑨-|
□□□□|⑩-⑪-⑫-|

□□□□
⑥⑫⑪□
□⑩□□
⑧□⑨⑦

24
④③②①|①-②-③-|
⑤□□1|④-⑤-⑥-|
⑥□□⑪|⑦-⑧-⑨-|
⑦⑧⑨⑩|⑩-⑪-⑫-|

□□□□
□□□⑫
□□□□
□□□□

25
□∨∨□|①---|
□□□□|----|
□①①□|②---|
□□□□|③④⑤⑥|

□③④□
□⑤⑥□
□22□
□□□□

26
③□□②|①---|
□⑤⑥④|②---|
③□□②|③-④-|
①□①□|--⑤⑥|

27
④②②⑤|①---|
□□□□|②---③-|
④□③⑤|④-⑤-|
①⑥⑦①|--⑥⑦|

28
□②②□|①---|
①□□①|--②-|
④⑤⑥⑦|③-④-⑤-|
③□□⑧|⑥-⑦-⑧-|

29
①③③①|①---|
④⑤⑥□|②---|
□□□□|③---|
□②②□|④-⑤-⑥-|

30
③□□②|①---|
④□□⑤|②---|
③□□②|③---|
①④⑤①|④-⑤-|

31
④②②⑤|①---|
□□□□|②---③-|
④□③⑤|④-⑤-|
①⑥⑦①|--⑥⑦|

32
□□□④|①---|
①⑤⑥①|②---|
③□□④|③-④-|
□□□②|⑤-⑥-⑦-|

□□□□
□□□⑦
□□□□
□□□□

33
⑧⑨⑩⑪|①-②-③-|
⑦□□⑫|④-⑤-⑥-|
⑥⑤④□|⑦-⑧-⑨-|
①②③□|⑩-⑪-⑫-|

34
□□□□|①---|
□②③□|----|
②□□③|②-③-|
①①□□|----|

35
④②②⑤|①---|
□□□□|②---③-|
④□③⑤|④-⑤-|
①⑥⑦①|--⑥⑦|

36
□□□□|①---|
①□□①|----|
③④⑤⑥|②-③-④-|
②□□⑦|⑤-⑥-⑦-|

37
□①①□|①---|
②④④③|②-③-④-|
□□□□|⑤---|
□②③□|----|

⑤□□⑤
□□□□
∧□□∧
□□□□

38
1□□1|----|
□□□□|---①|
□□□□|----|
□□□□|----|

39
⑧④③□|①---②-|
⑨⑤⑫②|--③---|
⑩⑥□⑬|④⑤⑥⑦⑧⑨⑩⑪|
⑪⑦①□|⑫-⑬-⑭-|

□□□□
□□□□
□□□□
□□⑭□

40
⑧⑤③①|①-②---|
⑥⑨□④|③-④---|
□⑦②□|⑤-⑥-⑦-|
⑩□<□|⑧-⑨-⑩-|

41
□□②①|----|
□□⑤□|①-②---|
⑥□④③|③-④---|
1□□⑤|⑤---⑥-|

42
①②⑤□|①-②---|
③④□⑥|③-④---|
□□⑦□|⑤-⑥-⑦-|
□>□⑧|⑧---|

43
□②⑧⑤|①-②---|
③④⑥⑨|③-④---|
□②□⑦|⑤-⑥-⑦-|
□□⑩1|⑧-⑨-⑩-|

44
①②□⑧|①-②---|
⑤⑥□□|③-④---|
③④⑦⑧|⑤-⑥-⑦-|
□□□□|⑧---|

45
④⑤□□|①---|
□□□□|②-③---|
②③⑥⑦|④-⑤---|
①□⑥①|⑥---⑦-|

46
□□⑤②|①-②---|
③④①⑥|③-④---|
□□⑦⑩|⑤-⑥-⑦-|
□□⑨⑧|⑧-⑨-⑩-|

47
□⑩⑨□|①-②---|
③④⑧□|③-④---|
⑤⑥⑦□|⑤-⑥-⑦-|
①②□□|⑧-⑨-⑩-|

48
□□□□|①---|
∨□□∨|----|
□□□□|--②-|
①□□①|----|

□□□□
□□□□
□□□□
2□□2

49
⑧⑧⑤④|①-②-③-|
□③⑦⑥|④-⑤---|
□②⑤④|⑥-⑦---|
□①⑦⑥|⑧---⑨-|

□□□□
□□□□
□□□□
□⑨□□

50
□□④③|①-②---|
②⑦□⑧|③-④---|
①□④③|⑤-⑥-⑦-|
⑤□⑥⑧|⑧---|

51
②③④⑦|--①---|
①□①□|②-③---|
②③⑧⑤|④-⑤-⑥-|
□□⑥⑨|⑦-⑧-⑨-|

52
③④⑤□|①-②---|
①②⑧⑧|③-④---|
③④□⑥|⑤-⑥-⑦-|
①②⑦□|⑧---|

53
①②④③|----|
⑤□□□|①-②---|
⑤□□⑥|③-④---|
①②④③|⑤---⑥-|

54
③④⑧⑦|①-②---|
□□①②|③-④---|
□□⑥⑨|⑤-⑥-⑦-|
③④⑩⑤|⑧-⑨-⑩-|

55
②□□□|①---|
□③①□|--②-|
□①③□|----|
②□□□|③---|

56
□□□①|--①-|
□□□□|----|
□□□□|----|
□□□①|----|

57
□□□□|①---|
①><①|----|
①><①|----|
□□□□|----|

58
□□□□|----|
□□□□|----|
□□□□|----|
□□□□|----|

59
□□□□|①---|
1□□1|----|
1□□1|----|
□□□□|----|

60
□□□□|----|
□□□□|----|
□□□□|----|
□□□□|----|

61
①①①□|①---|
□□□□|----|
□□□□|②---|
□□□②|----|

62
□□□②|①---|
□①□□|----|
□□□□|②---|
□□□□|----|

63
□□□□|①---|
①②□①|----|
□□□□|②---|
□①①□|----|

64
⑥⑤⑤□|①---|
④□①□|②-③-④-|
③□□□|⑤---|
②□⑦□|⑥-⑦-|

65
③②□①|①---|
□①②④|--②-|
②□□①|----|
③①□②|③-④-|

66
□⑥⑤③|①-②-|
②□□□|③-④-|
□①□□|⑤---|
⑥④①⑤|⑥-⑦-|

□□□□
□□□□
□⑦□□
□□□□

67
①③□②|①---|
②□①④|--②-|
①□②□|----|
③②①□|③-④-|

68
□□②□|①-②-|
⑤⑥⑦□|③-④-|
③①④①|⑤-⑥-|
□⑤⑥⑦|⑦---|

69
③②①②|①---|
□□□①|--②-|
②①②□|----|
①③□□|③-④-|

□□□□
□□□④
□□□□
□□□□

70
⑥□②⑤|①-②-|
□③①□|③-④-|
□①□□|⑤---|
□⑥⑤④|⑥-⑦-|

□□□□
□□□□
□⑦□□
□□□□

71
③②①④|①---|
①③②□|--②-|
②□①□|----|
①□□②|③-④-|

72
⑤③□□|①-②-|
□⑦□□|③---|
⑥③④②|④-⑤-|
④①②⑥|⑥-⑦-|

73
⑨⑦③②|①-②③|
①⑧⑤④|④⑤⑥-|
□□⑧⑥|⑦---|
⑦①□□|⑧-⑨-|

74
□□③①|①-②-|
②□⑤□|③-④-|
□⑥□□|⑤---|
⑥④①⑤|⑥-⑦-|

□□□□
□□□□
□□□□
□□⑦□

75
②③⑦①|①-②③|
④⑤⑧□|④⑤⑥-|
⑥⑧□①|⑦---|
□□□⑦|⑧-⑨-|

□□□⑨
□□□□
□□□□
□□□□

76
①③□□|①-②-|
□□□②|③---|
⑥⑤④□|④-⑤-|
③⑥⑤④|⑥---|

77
①⑦③②|①-②③|
①⑧⑤④|④⑤⑥-|
□□⑧⑥|⑦---|
⑦□□□|⑧-⑨-|

⑨□□□
□□□□
□□□□
□□□□

78
□□③①|①-②-|
②□⑤□|③-④-|
□⑥□□|⑤---|
⑥④①⑤|⑥-⑦-|

□□□□
□□□□
□□□□
□□⑦□

79
②□③①|①---|
④□□□|--②-|
②□□①|----|
□□□③|③-④-|

80
③□□□|①-②-|
⑥⑥①□|③---|
④④⑤⑤|④-⑤-|
③②□□|⑥-⑦-|

□□□□
□□⑦⑦
□□□□
□□□□

81
③①④□|①-②-|
□⑦□□|③-④-|
□□□⑧|⑤-⑥-|
□⑤②⑥|⑦-⑧-|

82
□□⑧②|①-②-|
③□□□|③-④-|
□⑦④□|⑤-⑥-|
①⑤□⑥|⑦-⑧-|

83
①□□□|①-②-|
□⑤⑥④|③-④-|
③□□□|⑤-⑥-|
⑦□②⑧|⑦-⑧-|

84
□□□④|①-②-|
③□⑧□|③-④-|
□⑤②⑥|⑤-⑥-|
⑦①□□|⑦-⑧-|

85
③①④□|①-②-|
□⑦□□|③-④-|
□□□⑧|⑤-⑥-|
□⑤②⑥|⑦-⑧-|

86
□□⑧②|①-②-|
③□□□|③-④-|
□⑦④□|⑤-⑥-|
①⑤□⑥|⑦-⑧-|

87
①□□⑧|①-②-|
□⑤⑥④|③-④-|
③□□□|⑤-⑥-|
⑦□②□|⑦-⑧-|

88
①⑤⑥□|①-②-|
⑦□□⑧|③-④-|
⑤③④⑥|⑤-⑥-|
□⑦⑧②|⑦-⑧-|
最終更新:2024年09月14日 15:19