アットウィキロゴ
Insanity: Sol / BEMANI Sound Team "Yvya"
BPM:196
Notes:923

1
⑥②⑤□ |①-②-|
⑧□□□ |③-④-|
□□⑦□ |⑤-⑥-|
□④①③ |⑦-⑧-|

2
⑥□⑤① |①-②-|
□④⑦□ |③-④-|
□□□③ |⑤-⑥-|
②⑧□□ |⑦-⑧-|

3
⑧②□⑦ |①-②-|
□□□③ |③-④-|
④⑥⑤□ |⑤-⑥-|
□□□① |⑦-⑧-|

4
□□①⑦ |①-②-|
⑥②⑤□ |③-④-|
□⑧□③ |⑤-⑥-|
④□□□ |⑦-⑧-|

5
⑥②⑤□ |①-②-|
⑧□□□ |③-④-|
□□⑦□ |⑤-⑥-|
□④①③ |⑦-⑧-|

6
⑥□⑤① |①-②-|
□④⑦□ |③-④-|
□□□③ |⑤-⑥-|
②⑧□□ |⑦-⑧-|

7
□②□⑦ |①-②-|
□□□③ |③-④-|
④⑥⑤□ |⑤-⑥-|
⑧□□① |⑦-⑧-|

8
②⑧⑦□ |①-②-|
⑥④③⑤ |③-④-|
⑧□□⑦ |⑤-⑥-|
□⑥⑤① |⑦-⑧-|

9
□□⑧② |①-②-|
⑤⑦④⑤ |③-④-|
□③□□ |⑤-⑥-|
①□⑥① |⑦-⑧-|

10
⑤④□⑤ |①-②-|
⑨□③□ |③-④-|
①⑥⑦① |⑤-⑥⑦|
□②□⑧ |⑧-⑨-|

11
□③□⑧ |①-②-|
□⑤⑤② |③-④-|
⑦□□④ |⑤-⑥-|
□①①⑥ |⑦-⑧-|

12
□⑤⑤□ |①-②-|
②⑥□□ |③-④-|
⑧①①③ |⑤-⑥-|
□④⑦□ |⑦-⑧-|

13
□□⑧② |①-②-|
⑤⑦④⑤ |③-④-|
□③□□ |⑤-⑥-|
①□⑥① |⑦-⑧-|

14
⑤④□⑤ |①-②-|
⑨□③□ |③-④-|
①⑥⑦① |⑤-⑥⑦|
□②□⑧ |⑧-⑨-|

15
□□④⑥ |①-②-|
□⑤⑤② |③-④-|
③⑦□□ |⑤-⑥-|
□①①□ |⑦-⑧-|

□□□□
□□□□
□□□□
□□⑧□

16
①②⑩⑧ |①②③-|
□□□③ |④-⑤⑥|
⑦⑨⑥⑤ |⑦-⑧-|
□④□□ |⑨-⑩-|

17
⑥□⑦□ |①---|
②③④⑥ |②③④-|
□□□□ |--⑤-|
①□⑤① |⑥-⑦-|

18
□□⑦③ |①-②-|
③□⑤□ |③-④-|
⑦⑤②④ |⑤---|
⑥□□① |⑥-⑦-|

19
①⑥⑥□ |--①-|
□④③② |--②③|
⑦□①□ |④-⑤-|
□⑤□□ |⑥-⑦-|

20
③□⑩③ |①-②-|
①□⑥⑤ |③-④-|
⑩②⑧⑦ |⑤⑥⑦⑧|
④□□⑨ |⑨-⑩-|

21
⑥②⑦④ |--①-|
①□□③ |②-③-|
□□⑥□ |④-⑤-|
□□①⑤ |⑥-⑦-|

22
□□□④ |①-②-|
□⑤③⑤ |③-④-|
⑥⑥□② |⑤---|
③□①⑤ |⑥---|

23
⑤③①③ |①---|
①④②□ |②-③-|
□□③⑤ |--④-|
⑥①⑤□ |⑤-⑥⑦|

□□□□
□□□□
□□□□
□⑦□□

24
□□⑦⑥ |①②③-|
③□⑤④ |④⑤⑥⑦|
①②□□ |----|
□□□□ |----|

25
□⑥□⑤ |①---|
⑥④□□ |②③④⑤|
①□③① |⑥---|
②⑦⑦□ |⑦-⑧-|

□□□□
□□□□
⑧□□⑧
□□□□

26
④⑩⑤⑨ |--①②|
⑩⑧③⑤ |③④⑤-|
□②⑦⑪ |⑥⑦⑧⑨|
⑥□⑪① |⑩-⑪-|

27
③□□⑦ |--①②|
□⑥②□ |③-④-|
④①⑤⑧ |--⑤⑥|
⑧□□④ |⑦-⑧-|

28
⑦③②⑩ |--①②|
⑤⑨⑧⑥ |③④⑤⑥|
□⑦⑩□ |⑦-⑧-|
⑨①④⑧ |⑨-⑩-|

29
⑦③□⑦ |①---|
□□⑥④ |②③④⑤|
①⑤□① |⑥---|
□□②⑥ |⑦-⑧-|

□□□□
□□□□
⑧□□⑧
□□□□

30
□⑨④□ |--①②|
⑤③⑧⑩ |③④⑤-|
⑪⑦②⑪ |⑥⑦⑧⑨|
①⑤⑩⑥ |⑩-⑪-|

31
④□□⑧ |--①②|
□③⑦□ |③-④-|
□⑥②□ |--⑤⑥|
①④⑧⑤ |⑦-⑧-|

32
⑤①④□ |--①②|
⑦⑧⑨⑩ |③④⑤⑥|
□□⑥② |⑦⑧⑨⑩|
③⑪⑪□ |⑪---|

33
⑥①⑥① |①---|
④⑤□□ |②③④⑤|
②③□□ |⑥---|
⑦□□□ |⑦-⑧-|

□⑧□⑧
□□□□
□□□□
□□□□

34
⑦□⑦□ |--①②|
⑥⑤□⑤ |③④⑤-|
□□④③ |--⑥-|
□□②① |⑦---|

35
□①□① |①---|
⑥⑧⑥⑧ |②③④⑤|
④⑤□□ |⑥---|
②③⑦□ |⑦-⑧-|

36
①②①③ |--①-|
④⑦④□ |②-③-|
②⑤③□ |④-⑤-|
⑤⑦⑥⑥ |⑥-⑦-|

37
①⑥①⑥ |①---|
□□⑤④ |②③④⑤|
□□③② |⑥---|
□□⑦□ |⑦-⑧-|

⑧□⑧□
□□□□
□□□□
□□□□

38
□⑦□⑦ |--①②|
⑤□⑤⑥ |③④⑤-|
③④□□ |--⑥-|
①②□□ |⑦---|

39
⑤⑥⑦⑦ |①-②-|
⑥①④⑤ |③-④-|
⑧⑧②② |⑤-⑥-|
①③③④ |⑦-⑧-|

40
⑦□□□ |①-②-|
⑧①⑤⑥ |③④⑤⑥|
⑨□③④ |⑦-⑧-|
①②②□ |⑨-⑩-|

□□□□
□□□□
□□□□
⑩□□□

41
⑧⑥⑧⑥ |①---|
□□⑤④ |②③④⑤|
□□③② |⑥---|
□①①⑦ |⑦-⑧-|

42
⑨⑧⑦□ |--①②|
⑤⑥⑤⑥ |③④⑤-|
③④□□ |--⑥-|
①②□□ |⑦⑧⑨-|

43
□□□① |①---|
□⑥□⑥ |②③④⑤|
□□⑤④ |⑥---|
①⑦③② |⑦-⑧-|

⑧□□⑧
□□⑧□
⑧□□□
□□□□

44
□①①□ |----|
①②□② |①---|
□□□① |--②-|
②□□② |----|

45
□□⑤□ |----|
⑤⑦□⑦ |①②③④|
□③④□ |⑤---|
⑥①②□ |⑥-⑦-|

46
⑩⑤⑧⑤ |--①②|
□⑨□⑦ |③④⑤-|
□□④③ |--⑥-|
⑥□②① |⑦⑧⑨⑩|

47
□②□③ |①---|
⑥⑫⑦⑬ |②③④⑤|
⑧④⑨⑤ |⑥⑦⑧⑨|
⑩①⑪① |⑩⑪⑫⑬|

48
③⑦④⑧ |①②③④|
□□□□ |⑤⑥⑦⑧|
⑨⑤□⑥ |⑨---|
□①□② |----|

49
□⑧④⑧ |①-②-|
①③⑥① |③-④-|
□⑦②□ |⑤-⑥-|
⑤①①⑤ |⑦-⑧-|

50
③□④□ |--①-|
□②⑥④ |②-③-|
①⑦□□ |④-⑤-|
⑦⑤□□ |⑥-⑦-|

51
□⑤□⑥ |--①②|
①②□□ |③-④-|
④□③□ |⑤-⑥-|
⑧□⑦□ |⑦-⑧-|

52
④④□□ |①-②-|
⑤□③⑤ |③-④-|
□②□□ |----|
□⑥⑥① |⑤-⑥-|

53
□□□③ |----|
□④□□ |--①②|
①②⑤□ |③-④-|
⑥□□□ |⑤-⑥-|

54
□⑤③⑤ |①-②-|
②⑧⑧① |③-④-|
⑥□□□ |⑤-⑥-|
□④①⑦ |⑦-⑧-|

55
⑥④①③ |--①-|
□□□□ |②-③-|
□②⑤□ |--④-|
□⑥③□ |⑤-⑥-|

56
□④③⑤ |--①-|
□⑥⑥① |②-③-|
⑥②□⑥ |--④-|
⑤□④③ |⑤-⑥-|

57
□⑦④□ |----|
③□⑥□ |----|
□⑤□⑧ |①②③④|
□①②□ |⑤⑥⑦⑧|

58
①⑧⑧④ |①-②-|
⑤□□□ |③-④-|
③⑥□□ |⑤-⑥-|
⑦□□② |⑦-⑧-|

59
④□⑦③ |①-②-|
⑧②□□ |③-④-|
⑥□□⑤ |⑤-⑥-|
□□①□ |⑦-⑧-|

60
⑦⑦⑧⑧ |①-②-③-|
□□②① |④-⑤-⑥-|
□④③□ |⑦-⑧-|
⑥⑤⑨⑨ |⑨-⑩-|

□□□□
⑩□□⑩
□□□□
□□□□

61
④□□⑤ |----|
□□③□ |--①-|
□②□□ |②-③-|
①①□□ |④-⑤-|

62
⑧□④⑧ |①-②-|
③⑧⑧⑥ |③-④-|
①⑦□② |⑤-⑥-|
□⑤⑤① |⑦-⑧-|

63
□③④□ |----|
□□□⑥ |----|
①⑦⑦② |①②③④|
□⑤□□ |⑤⑥⑦-|

64
□□□□ |----|
□□□□ |----|
□□□□ |----|
□□□□ |----|

65
□①⑦⑧ |①-②-|
□⑤②④ |③-④-|
①□⑥⑤ |⑤-⑥-|
⑤□③① |⑦-⑧-|

66
①④□□ |①-②-|
③⑥①⑤ |③-④-|
⑦②□□ |⑤-⑥-|
⑤⑧⑤① |⑦-⑧-|

67
①□⑧③ |①-②-|
□⑤②⑥ |③-④-|
□①⑤⑦ |⑤-⑥-|
⑤□④① |⑦-⑧-|

68
⑦①□⑤ |①-②-|
③⑤①□ |③-④-|
②⑧⑤□ |⑤-⑥-|
④⑥□① |⑦-⑧-|

69
□①⑦⑧ |①-②-|
□⑤②④ |③-④-|
①□⑥⑤ |⑤-⑥-|
⑤□③① |⑦-⑧-|

70
①④□□ |①-②-|
③⑥①⑤ |③-④-|
⑦②□□ |⑤-⑥-|
⑤⑧⑤① |⑦-⑧-|

71
①□⑧③ |①-②-|
□⑤②⑥ |③-④-|
□①⑤⑦ |⑤-⑥-|
⑤□④① |⑦-⑧-|

72
⑦⑦□③ |①-②-|
②□⑧⑥ |③-④-|
⑤⑤④□ |⑤-⑥-|
□①⑥⑧ |⑦-⑧-|

73
□□②④ |①-②-|
□①⑦⑥ |③-④-|
⑤□③① |⑤-⑥-|
①⑤⑤⑧ |⑦-⑧-|

74
①①①⑤ |①-②③|
③③⑦⑥ |④-⑤-|
⑤⑤④② |⑥-⑦-|
□□⑨⑧ |⑧-⑨-|

75
①①②③ |①-②-|
□□⑤⑧ |③-④-|
⑤□④① |⑤-⑥-|
□⑤⑦⑥ |⑦-⑧-|

76
①⑤①③ |①-②-|
□□⑤⑦ |③-④-|
⑤①④② |⑤-⑥-|
□□⑥⑧ |⑦-⑧-|

77
□□②④ |①-②-|
□①⑦⑥ |③-④-|
⑤□③① |⑤-⑥-|
①⑤⑤⑧ |⑦-⑧-|

78
①①①⑤ |①-②③|
③③⑦⑥ |④-⑤-|
⑤⑤④② |⑥-⑦-|
□□⑨⑧ |⑧-⑨-|

79
①①②④ |①-②-|
□□⑤⑧ |③-④-|
□□③① |⑤-⑥-|
⑤⑤⑦⑥ |⑦-⑧-|

80
①②□□ |①-②-|
④④□⑦ |③-④-|
①⑤③⑦ |⑤-⑥-|
⑧□⑥□ |⑦-⑧-|

81
□⑧□⑦ |①-②-|
④□③□ |③-④-|
⑥□⑤□ |⑤-⑥-|
□②□① |⑦-⑧-|

82
②□□⑧ |①-②-|
④⑤⑥□ |③-④⑤|
□□□③ |⑥-⑦-|
⑦⑨①□ |⑧-⑨-|

83
⑩②⑤⑨ |①-②-③-|
□⑧⑪□ |④-⑤-⑥-|
⑥④①□ |⑦---⑧-|
⑦□③⑦ |⑨-⑩-⑪-|

84
□⑤⑧□ |①-②-③-|
③⑨□③ |--④-⑤-|
⑩□②⑩ |⑥-⑦-⑧-|
⑦①④⑥ |⑨-⑩---|

85
①□□① |①---|
□□□□ |----|
□□□□ |②---|
②□□□ |--③-|

□□□③
□□□□
□□□□
□□□□

86
□①②□ |----|
□③④□ |----|
⑤□□⑥ |①②③④|
⑦□□⑧ |⑤⑥⑦⑧|

87
⑤⑧⑨⑤ |①---|
②□⑦□ |②-③-④-|
⑨③①⑥ |⑤---⑥-|
□①④□ |⑦-⑧-⑨-|

88
⑥⑦⑦⑤ |--①-②-|
⑦④⑦③ |③-④---|
⑦⑦②□ |⑤---⑥-|
⑤①④⑥ |--⑦---|
最終更新:2024年09月14日 15:20