アットウィキロゴ
Insanity / BEMANI Sound Team "SYUNN & Yvya"
BPM:210
Notes:998

1
①□□①|①---|
□□□□|--②-|
□□□∧|----|
□□□□|③---|

□②②②
□□□□
□□∧□
□□□□

□□③□
□□□□
③□□③
□□□∧

2
□□□∨|--①-|
①□□①|----|
□□□①|②---|
□□□□|③-④-|

□□□□
□□□②
□□④□
□③②□

3
□□□□|①---|
□①①<|--②-|
□□□□|----|
□□□□|③---|

□□□□
□□②□
□□□□
②□>②

□□□□
③□>③
□□□□
□□□③

4
□□□□|--①-|
□□□①|----|
□①①<|②---|
□□□□|③-④-|

②□□③
④□□□
□□②□
□□□□

5
□□□□|①---|
□□□□|--②-|
①□>①|----|
□□□□|③---|

□□∨□
□②②□
□□□②
□□□□

□□□□
□□③□
□□□□
□③③<

6
□□□□|--①-|
①□□①|----|
□□□∧|②---|
□□①□|③-④-|

□□□□
□□□②
□□□④
③□□②

7
①□□①|①---|
□□□□|--②-|
□□□□|----|
□□□∧|③---|

□□□②
□□□□
□②②<
□□□□

□□□□
□③③<
□□③□
□□□□

8
□□□∨|--①-|
□□①□|----|
□□□□|②-③-|
①□□①|④-⑤-|

□②③□
④□□⑤
②□□③
□④⑤②

9
①□□①|①---|
□□□□|②-③-|
□□□∧|④-⑤-|
□□□□|⑥---|

□□□②
□④□□
□□③□
②□∧□

□□⑥□
□□∧□
□□⑤□
□⑥□□

10
①□①□|①-②-|
□□□∨|③-④-|
□□□②|⑤---|
③□□□|⑥⑦⑧⑨|

□⑤□□
⑧⑨⑤⑤
⑥⑦□④
□□□□

11
①□①<|①---|
□□□□|②-③-|
□□□□|④-⑤-|
□□□□|⑥---|

□④②□
□□□□
□□>③
□②□□

□□□□
□□⑥□
□□∧⑤
⑥□□□

12
□□□□|①-②-|
①③①□|③-④-|
□□□□|⑤---|
□□>②|⑥⑦⑧⑨|

□⑤□□
□□□⑤
⑧⑨⑤□
⑥⑦□④

13
□□∨□|①---|
①□①□|②-③-|
□□□□|④-⑤-|
□□□□|⑥---|

②④□□
□□②∨
□□□③
□□□□

□□⑥<
□□□□
□□□⑤
□⑥□□

14
□□①②|①-②-|
①□□∧|③-④-|
□□□□|⑤---|
□□□□|⑥⑦⑧⑨|

□⑤□④
□③⑤□
⑧⑨⑤□
⑥⑦□□

15
□□①□|①---|
①□□□|②-③-|
□□∧□|④-⑤-|
□□□□|⑥---|

②□②□
□④□∨
□□□③
□□□□

□□∨□
□□⑥□
□□□⑤
⑥□□□

16
③□□□|①-②-|
□□①□|③-④-|
□①②<|⑤-⑥-|
□□□□|⑦-⑧-|

□⑧⑦□
⑥□□⑤
⑧□④⑦
□⑥⑤□

17
□□□②|①-②-|
□□①⑥|--③-|
□□④⑤|④---|
□□□③|⑤-⑥-|

18
□□□②|--①-|
□□①□|②---|
□□⑤⑥|③-④-|
□□③④|⑤-⑥-|

19
□⑥□□|①-②-|
⑤①□□|--③-|
③②□□|④---|
□④□□|⑤-⑥-|

20
⑪⑫⑬⑭|--①②|
⑩③⑧□|③④⑤⑥|
⑨①⑥④|⑦⑧⑨⑩|
⑤⑦□②|⑪⑫⑬⑭|

21
□⑥□□|①-②-|
□⑤⑦①|--③④|
⑥②④□|⑤---|
③□①⑤|⑥-⑦-|

22
⑤□⑥①|--①②|
③⑤□④|③---|
⑥②⑦⑦|④-⑤-|
④□③□|⑥-⑦-|

23
□⑥□③|①-②-|
⑤□①⑦|--③④|
⑥②□□|⑤---|
④□⑤①|⑥-⑦-|

24
③⑦②⑥|--①②|
④□⑤□|③---|
⑦⑥③□|④-⑤-|
□①⑤④|⑥-⑦-|

25
④□□□|①-②-|
⑤③□①|--③-|
□⑤□①|④---|
②④□⑥|⑤-⑥-|

26
□③④②|--①-|
⑦□①⑧|②---|
⑤□⑥□|③④⑤⑥|
□⑨②⑩|⑦⑧⑨⑩|

27
①⑦□⑤|①-②-|
□□②⑥|--③④|
□①⑥④|⑤---|
③□⑤□|⑥-⑦-|

28
③□①□|--①②|
□□⑤□|③---|
⑥②□⑦|④-⑤-|
④③□□|⑥-⑦-|

29
□□⑦⑦|①-②-③-|
①②□□|④-⑤-⑥-|
⑩③④□|⑦---|
⑨⑧⑤⑥|⑧-⑨-⑩-|

30
②③⑧⑧|①-②-③-|
①⑦④⑧|④---|
□□⑥□|⑤-⑥-⑦-|
□□④⑤|⑧---|

31
⑦④⑩□|①-②-③-|
③□⑥⑨|④-⑤-⑥-|
⑦②⑧⑤|⑦---|
①□□□|⑧-⑨-⑩-|

32
□③□□|①-②-③-|
②①□□|④---|
⑨⑧⑦⑥|⑤-⑥-⑦-|
⑩④④⑤|⑧-⑨-⑩-|

33
⑦③②①|①-②-③-|
□④⑤⑥|④-⑤-⑥-|
□⑧⑨□|⑦---|
□⑦□⑩|⑧-⑨-⑩-|

34
⑧②①④|①-②-③-|
③□⑥□|④---|
□⑦□⑤|⑤-⑥-⑦-|
⑧□④□|⑧---|

35
□③②⑦|①-②-③-|
④□□①|④-⑤-⑥-|
⑤□⑦⑧|⑦---|
□⑥⑩⑨|⑧-⑨-⑩-|

36
□④□⑤|①-②-③-|
□②③□|④---|
④①□□|⑤---|
□□□∧|----|

37
□□①①|①---|
□□□□|--②-|
□□∧□|----|
□①①□|③---|

②②②∨
□□□□
□□□②
□□□□

□□□□
□□③□
③□□③
③□∧□

38
□□□①|--①-|
□□①□|----|
□□□∧|②---|
□①①□|③④⑤⑥|

□□□②
⑤□□⑥
③□□④
□□□□

39
①②②□|①-②-|
□□□∨|----|
□□□□|③---|
□□□②|--④-|

□□∨□
□□□□
□□③□
③③□③

□□□□
④□□④
④□④□
□□□∧

40
□①①□|----|
□□∨①|①---|
□□□□|--②-|
□□①□|----|

□□□□
□□□□
□□□□
□□②□

41
□□□①|①---|
□□□∧|--②-|
□□①□|----|
□□□①|③---|

□□□②
②□②□
□□∧□
□②□□

□□③<
□□③□
□□□□
③□③□

42
①□①□|--①-|
□□>①|----|
①□□□|②---|
□□□□|----|

□□□□
□□□②
□□□□
□□□□

43
□□②□|①-②-|
③□④□|③-④-|
□①□∨|⑤-⑥-|
□□□②|⑦-⑧⑨|

⑥□□□
□□□□
□□⑤□
⑤□∧⑤

□⑧□⑨
□□□⑦
□□⑦□
□□□□

44
□□④□|①②③④|
⑦③⑥□|⑤⑥⑦⑧|
①□□②|⑨---|
⑨⑤□⑧|----|

45
□②>①|①-②-|
□□□□|③-④-|
□□□□|⑤-⑥-|
□□①□|⑦-⑧-|

④□□③
□□□□
⑤□③□
□□>④

□>⑦□
⑧□⑥□
□□□□
□⑦□⑥

46
□②①□|①-②-|
□□□□|③-④-|
□□□①|⑤---|
③>②□|⑥⑦⑧⑨|

⑤□□□
□⑥⑦④
⑤⑧⑨□
□□④□

47
□□②□|①-②-|
③□□□|③-④-|
□□□□|⑤-⑥-|
□①>②|⑦-⑧-|

□□>⑤
□□□□
⑥□□④
⑤□□④

□⑧□⑦
□□⑦□
□□□□
□>⑧□

48
④>③□|①-②-|
□□□②|③-④-|
□①□□|⑤---|
□③②□|----|

□□⑤□
□⑤□□
□□⑤□
□□□□

49
④□⑦①|①-②-|
⑧□③⑤|③-④-|
②□⑥□|⑤-⑥-|
④□⑦①|⑦-⑧-|

50
⑩②□④|①-②-|
□⑥⑤⑪|③-④-|
③⑧⑦①|⑤⑥⑦⑧|
⑫②⑨□|⑨⑩⑪⑫|

51
⑭②③⑦|①②③④|
④⑩⑨⑮|⑤⑥⑦⑧|
⑧⑫⑪⑤|⑨⑩⑪⑫|
⑯⑥⑬①|⑬⑭⑮⑯|

52
□②③⑦|①②③④|
④⑩⑨□|⑤⑥⑦⑧|
⑧⑫⑪⑤|⑨⑩⑪⑫|
□⑥⑬①|⑬---|

53
①□□<|①---|
□□□□|----|
□□□□|----|
①□□<|----|

54
①□□□|----|
□□□□|----|
□□□□|①---|
①□□□|----|

55
□□□□|①---|
①□□<|②③④⑤|
>□□①|⑥---⑦-|
□□□□|--⑧---|

□□②□
②③□□
□□④②
□⑤□□

>□□⑥
□□□□
□□□□
□□□□

⑦⑧□□
□□□□
⑦⑧□□
□□□□

56
⑤□④④|①---②-|
□□③②|--③---|
⑤□⑦⑥|④---⑤-|
①□③②|--⑥⑦|

57
□②□□|①---|
③□⑤□|②③④⑤|
□④□□|⑥---|
□①□□|⑦⑧⑨⑩|

□□□□
□□□□
□□□□
⑥□<□

□□⑦□
□⑩□⑧
□□⑨□
⑦□□□

58
□□□□|①---|
□□□□|②-③-④-|
□□□□|⑤---|
□>□①|⑥-⑦-|

②③□⑥
⑥□④□
□⑤□□
□□⑤②

∨□□□
□□□□
□□□⑦
⑦□□□

59
①①□□|----|
□∨□□|①---|
□□□□|--②-|
□①□□|----|

□□□□
□②②□
□□∨□
□□②□

60
④④④④|①---②-|
③⑥⑤③|--③---|
②⑧⑦②|④---|
①①①①|⑤⑥⑦⑧|

61
□□□□|①-②-|
□□□□|③-④-|
□□□□|⑤-⑥-|
①□>①|⑦-⑧-|

□□□□
□□□□
④<□④
□②③②

□⑥⑤□
⑦□>⑦
⑤□□□
□□□□

□□□□
□□□⑧
□⑧□□
□□□□

62
②<□②|①-②-|
□□①□|③-④-|
□□□□|⑤-⑥-|
□□□□|⑦⑧⑨⑩|

③□□□
□④□□
□□□□
□□□③

□∨∨□
□□□□
□□□□
□⑤⑤□

□□□□
□□□□
⑩⑨⑧⑦
□⑥⑥□

63
□□①□|①---|
②□□③|②③④⑤|
□□□□|⑥-⑦-⑧-|
④□□⑤|⑨-⑩-⑪-|

⑥⑦□□
□⑧□□
□□⑩⑪
∧□⑨□

64
⑦⑦⑤⑥|①-②-③-|
⑨⑧④□|④-⑤-⑥-|
①②□□|⑦-⑧-⑨-|
⑩③□□|⑩---|

65
⑤□□□|①---|
□□□④|②③④⑤|
③①□□|⑥-⑦-⑧-|
□□①②|⑨-⑩-⑪-|

□⑧⑦⑥
□□□□
□□□□
□□□∧

□□□□
□□□□
□⑪⑩⑨
□□□□

66
⑨⑧⑦⑦|①-②-③-|
①②③□|④-⑤-⑥-|
⑩□□⑩|⑦-⑧-⑨-|
④⑤⑥□|⑩---|

67
⑪⑫⑬⑭|①-②-③-|
⑦⑥⑤④|④⑤⑥⑦|
□①②⑩|⑧-⑨-⑩-|
③⑨⑧□|⑪⑫⑬⑭|

68
⑩□□⑪|①②③④|
⑨⑦⑩⑥|⑤⑥⑦⑧|
①③④⑪|⑨---|
⑤□⑧②|⑩-⑪-|

69
□④⑦□|①-②-③-|
⑥⑧□⑤|④-⑤-|
①②③⑨|⑥-⑦-|
□④⑦□|⑧-⑨-|

70
①□□□|①-②-|
□□③□|③-④-|
□②□□|⑤-⑥-|
①□□□|⑦-⑧-|

>□□④
□□□□
□□□□
>□□④

□□⑧⑤
□⑦□□
□□⑥□
□⑤□⑤

71
④□□□|①-②-|
②⑥③③|--③-|
①③⑤①|④---|
□⑤①⑤|⑤-⑥-|

72
⑤②①①|--①-|
□⑦⑤⑦|②-③-|
④⑥⑥④|④-⑤-|
①□③□|⑥-⑦-|

73
⑥④⑤□|①-②-|
③□□□|--③-|
⑤□□⑤|④---|
②①③①|⑤-⑥-|

74
□⑤⑧①|--①-|
⑨□□④|②-③-|
⑦②⑥⑩|④⑤⑥⑦|
⑪①□③|⑧⑨⑩⑪|

75
⑤□⑦③|①-②-|
⑦①①⑤|③-④-|
□④⑥⑧|⑤-⑥-|
⑧②②④|⑦-⑧-|

76
□③□③|①-②-|
⑧⑨①□|③-④-|
⑤⑥⑦□|⑤-⑥-⑦-|
□②②④|⑧-⑨-⑩-|

□□□□
□□⑩□
□□□□
□□□□

77
①⑤⑤⑦|①-②-|
⑦⑧⑧①|③-④-|
□□⑥③|⑤-⑥-|
②④②④|⑦-⑧-|

78
③□□□|①-②-|
⑧⑨⑩①|③-④-|
⑤⑥⑦③|⑤-⑥-⑦-|
②④②④|⑧-⑨-⑩-|

79
③①①□|①---|
□⑤□□|--②-|
⑥④□□|③-④-|
②□③③|⑤-⑥-|

80
⑤①□⑧|①-②-|
③□⑦⑤|③-④-|
⑨⑥①①|⑤-⑥⑦|
④②⑤□|⑧-⑨-|

81
⑦①⑤□|①-②-|
③④□□|③-④-|
⑧⑥⑤①|⑤-⑥-|
⑤②□①|⑦-⑧-|

82
⑨①□⑫|①-②-|
③④⑧①|③-④-|
⑪⑦⑩⑥|⑤⑥⑦⑧|
⑤②①□|⑨⑩⑪⑫|

83
□①②□|①---|
③③□②|--②-|
□□④□|③---|
④④①④|④---|

84
②⑥④②|①-②-|
⑥□①⑤|--③-|
②□⑥②|④-⑤-|
□□③⑦|⑥-⑦-|

85
④□④②|①-②-|
□□①⑥|--③-|
□④⑤④|④---|
□□③□|⑤-⑥-|

86
□④□④|--①②|
①②③□|③-④-|
□□□□|⑤---|
□⑤⑤□|----|

87
∨□□∨|①---|
□□□□|②---|
①□□①|③④⑤⑥⑦---|
□□□□|⑧-⑨-|

□③⑨□
⑧④□⑦
②⑤□②
□⑥□□

88
②□□②|①-②-|
□□□□|----|
③□□③|③---|
①□□□|----|

89
⑨⑨⑩⑩|①-②③|
①⑥⑦⑧|④⑤⑥⑦|
□⑤□□|⑧---⑨-|
□④③②|--⑩---|

90
□⑤⑥□|----|
⑤②□④|---①②③|
①□③⑥|④---⑤-|
□⑤⑥□|--⑥---|

91
②⑥□③|①-②-|
⑥□⑤⑥|③-④-|
□⑤□□|⑤-⑥-|
①⑥□④|----|

92
□□□□|①---|
□①□<|②---|
>□①□|③---|
□□□□|--④⑤|

□□③③
□②□□
③⑤②□
③□④□

93
②□⑤④|①-②-|
□③①⑤|--③-|
⑥□③□|④---|
④⑥□②|⑤-⑥-|

94
③①□⑤|--①-|
①④□□|②---|
□□④②|③---④-|
⑤□②③|--⑤---|

95
□□□□|①-②-|
□□②①|----|
□②□∧|③---|
□①<□|----|

□□②□
□□□□
②□□<
□□∧□

□②□<
②□□□
□□□□
∧□□□

□③③□
③□□③
③□□□
□③□□
最終更新:2024年09月14日 15:20