アットウィキロゴ
BPM:175
1
□②④□ |①②-③|
②①③④ |④-⑤⑥|
⑥⑤⑦⑨ |-⑦--|
⑧⑥□□ |⑧-⑨-|
2
□②②□ |①---|
②①□② |②---|
□□□□ |----|
□□□□ |----|
3
③⑥⑦⑧ |①②-③|
⑫⑪⑩⑨ |-④⑤-|
③□⑤② |⑥⑦⑧⑨|
□□④① |⑩⑪⑫-|
4
□□⑤□ |①---|
□④□□ |--②-|
□□③□ |③-④-|
①②□① |⑤---|
5
⑥⑦⑧③ |①②-③|
⑫⑪⑩⑨ |-④⑤-|
②⑤□③ |⑥⑦⑧⑨|
①④□□ |⑩⑪⑫-|
6
□③□□ |①---|
□⑤□□ |--②-|
□□④□ |③-④-|
①□②① |⑤---|
7
□⑥⑦⑧ |①②-③|
③⑪□⑨ |-④⑤-|
⑫⑤⑩② |⑥⑦⑧⑨|
③④□① |⑩⑪⑫-|
8
①④□⑤ |①---|
□□□□ |--②-|
□□□□ |③-④-|
②□③① |⑤---|
9
□□□□ |①②-③|
⑤②□③ |-④⑤-|
④①□□ |⑥⑦⑧⑨|
□□□③ |⑩⑪⑫-|

□⑥⑦⑧
□□□□
□⑪□⑨
⑫□⑩□
10
④⑥□⑥ |①②-③|
□③⑤② |④-⑤⑥|
④⑨①□ |-⑦--|
□⑦⑧② |⑧-⑨-|
11
⑤□①⑤ |①---|
③□□③ |②---|
□□□① |③---|
②□④□ |④-⑤-|
12
□④④□ |--①-|
□③□□ |②-③-|
⑤□②⑤ |④---|
□①□□ |⑤---|
13
①⑤⑤① |①---|
③□□③ |②---|
□□□□ |③---|
④□②□ |④-⑤-|
14
④□□④ |--①-|
□□①□ |②-③-|
□②⑤□ |④---|
□□③□ |--⑤-|
15
⑤①□⑤ |①---|
③□□③ |②---|
①④□□ |③--④|
□□□② |--⑤-|
16
□④④□ |--①-|
⑤③□⑤ |②-③-|
□□②□ |④---|
□①□□ |⑤---|
17
③□□③ |①---|
□□□□ |--②-|
①②②① |③---|
□□□□ |----|
18
①□□□ |----|
□⑤□④ |--①-|
□③□□ |②-③-|
□□②□ |④-⑤-|
19
⑥⑦⑧⑨ |①②-③|
③□⑩□ |-④⑤-|
□⑪⑤② |⑥⑦⑧⑨|
⑫□④① |⑩⑪⑫-|
20
□□⑤□ |①---|
①④□□ |--②-|
□□③□ |③-④-|
□②□① |⑤---|
21
⑥⑦⑧⑨ |①②-③|
③□⑤② |-④⑤-|
□□④① |⑥⑦⑧⑨|
□⑫⑪⑩ |⑩⑪⑫-|
22
⑥⑤□□ |①②-③|
⑥□③④ |④-⑤⑥|
②①□④ |-⑦--|
②□□□ |⑧-⑨-|

□□□⑦
□□□□
□⑨□□
⑨□⑧□
23
□□③□ |①---|
□②①□ |②---|
②□□③ |③---|
□□□① |④-⑤-|

④□□⑤
□□⑤□
□□□□
□□□□
24
□③□□ |--①-|
③①□② |②-③-|
①□②④ |④---|
⑤⑤④⑥ |⑤-⑥-|
25
⑤⑤□□ |①---|
③③□④ |②---|
①①②□ |③---|
□□□□ |④-⑤-|
26
□□□① |--①-|
④③③④ |②---|
□⑤⑤□ |③---|
②□□② |④-⑤-|
27
□②④□ |--①-|
□⑤⑦□ |②-③-|
⑥□□⑧ |④-⑤⑥|
□①③□ |-⑦⑧-|
28
①④⑤① |①---|
③□□⑥ |--②-|
□②□□ |③-④-|
□□□□ |⑤-⑥-|
29
③④④□ |①---|
□②③□ |--②-|
④③①④ |③---|
□□□③ |④---|
30
⑥□□⑤ |①---|
①③②① |--②-|
④□□□ |③-④-|
①□①□ |⑤-⑥-|
31
□⑧⑦□ |①②③④|
□⑥⑤□ |⑤⑥⑦⑧|
□④③□ |⑨-⑩-|
□②①□ |⑪-⑫-|

⑪□□⑩
□□□□
□□□⑨
□⑫⑫□
32
□□□⑦ |--①-|
⑤□□③ |②-③-|
□②④⑥ |④-⑤-|
□□□① |⑥-⑦-|
33
⑩①②⑪ |①②③④|
□③④□ |⑤⑥⑦⑧|
⑨⑤⑥□ |⑨-⑩-|
⑫⑦⑧⑫ |⑪-⑫-|
34
⑦□□□ |--①-|
①③□② |②-③-|
⑥□□⑤ |④-⑤-|
□④□□ |⑥-⑦-|
35
⑪②⑦⑩ |①②③④|
□④⑤□ |⑤⑥⑦⑧|
□⑥③⑨ |⑨-⑩-|
⑫⑧①⑫ |⑪-⑫-|
36
□③□□ |--①-|
□□④② |②-③-|
④□⑥□ |④-⑤-|
⑦⑤①□ |⑥-⑦-|
37
③③□① |①-②-|
②②□③ |③---|
□□□④ |④-⑤⑥|
□□□□ |⑦⑧⑨⑩|

□□□□
□⑩⑨□
□⑧⑦□
□⑥⑤□
38
③④②① |①②-③|
④□□② |④-⑤⑥|
□□□⑥ |-⑦--|
□□⑥⑤ |⑧-⑨-|

□□□⑨
□□□□
⑦□□□
⑧□□□
39
③②□□ |①---|
②①①③ |②---|
③①①② |③---|
□①②③ |④-⑤-|

□□□□
□□□□
□□□□
④⑤□□
40
⑤□②④ |--①-|
②⑤④□ |②-③-|
□□①⑥ |--④-|
□□⑥③ |⑤-⑥-|
41
□②②□ |①---|
□□□□ |②-③-|
①□□□ |--④-|
③①□③ |--⑤-|

□□□④
④□□□
⑤□⑤□
□□□□
42
①□①□ |--①-|
③②③② |--②-|
□①□① |--③-|
②③②③ |----|
43
①□③① |①---|
⑤③□□ |②---|
①②③① |③---|
②④②□ |④-⑤-|
44
②⑤□① |①-②-|
□□①⑥ |③-④-|
⑦③□④ |--⑤-|
□□④□ |⑥-⑦-|
45
□④④□ |①---|
④②②④ |②---|
□②②□ |③---|
③①③① |④---|
46
②□□② |①---|
□□□□ |②---|
②□□② |③---|
③①③① |----|
47
③①①③ |①---|
□①□① |②---|
③①①③ |③---|
□①□② |④-⑤-|

□□□□
□□□□
□□□□
④⑤□□
48
⑥□②⑥ |--①-|
②⑥⑥□ |②-③-|
□□①□ |--④-|
□⑤④③ |⑤-⑥-|
49
□⑥③□ |--①-|
□⑤⑥④ |②-③-|
□②⑤⑥ |④---|
①□□□ |⑤-⑥-|
50
□□②□ |--①-|
②□□② |--②-|
□②□□ |--③-|
③①①③ |----|
51
□②④□ |①---|
④①③② |②---|
②③①④ |③---|
□④②□ |④---|
52
③②□② |①---|
□①□④ |②---|
⑤□①□ |③-④-|
②□②⑥ |⑤-⑥-|
53
④②④② |①---|
②④②④ |②---|
□□□□ |③---|
□①③□ |④---|
54
□③□③ |①-②-|
④□④□ |③---|
③⑤③⑤ |④--⑤|
①⑥⑥② |--⑥-|
55
①⑤①③ |①-②③|
□④□② |-④⑤-|
⑨⑧⑦⑥ |--⑥⑦|
□□⑪⑩ |⑧⑨⑩⑪|
56
③⑥⑤□ |①-②③|
②□④⑦ |-④⑤-|
□□⑧⑨ |⑥-⑦⑧|
□①⑩⑪ |⑨⑩⑪-|
57
⑬⑭⑤⑥ |①②③④|
⑧⑨④⑫ |⑤⑥⑦⑧|
⑦③⑩⑪ |⑨⑩⑪⑫|
①②⑯⑮ |⑬⑭⑮⑯|
58
□□⑧④ |①②③④|
□□③⑦ |-⑤⑥-|
⑥②□□ |⑦⑧-⑨|
①⑤□□ |⑩-⑪-|

□⑩□□
⑨□□□
□⑪⑪□
□□□□
59
⑦□⑥⑭ |--①②|
⑪⑤⑩⑧ |③④⑤⑥|
⑨⑬⑫② |⑦⑧⑨⑩|
①③④□ |⑪⑫⑬⑭|
60
⑪⑤⑥⑫ |①②③④|
⑩⑨⑧⑦ |⑤⑥--|
□□□□ |⑦⑧⑨⑩|
①②③④ |⑪-⑫-|
61
⑯⑮⑭⑬ |①②③④|
⑨⑩⑪⑫ |⑤⑥⑦⑧|
⑧⑦⑥⑤ |⑨⑩⑪⑫|
①②③④ |⑬⑭⑮⑯|
62
⑬⑭⑮⑯ |①②③④|
⑨⑩⑪⑫ |⑤⑥⑦⑧|
⑧⑦⑥⑤ |⑨⑩⑪⑫|
④③②① |⑬⑭⑮⑯|
63
□□□□ |①---|
□②②□ |----|
□②②□ |----|
□①①□ |--②-|
64
①②③□ |--①-|
□□□□ |②-③-|
□□□□ |----|
□①②③ |----|
65
①⑦⑤① |①-②-|
②⑤⑦② |③-④-|
③□□③ |--⑤-|
④□⑥④ |⑥-⑦-|
66
①□□① |--①-|
②□□② |--②-|
②①①② |--③-|
③③③③ |----|
67
③④②① |①-②-|
⑦⑧⑥⑤ |③-④-|
□③①□ |⑤-⑥-|
⑦□□⑤ |⑦-⑧-|
68
⑤②③① |①---②-|
□□④□ |--③-④-|
①⑥⑤② |⑤---⑥-|
□③⑥□ |--⑦-⑧-|

□□□⑦
⑦□□□
⑧□□□
□□□□
69
④③②□ |①---|
□□□□ |--②③|
□□⑥⑤ |④---|
①□□① |--⑤⑥|
70
□⑥④□ |①②-③|
⑥⑤③④ |④-⑤⑥|
②①□⑨ |-⑦--|
⑧②⑦□ |⑧-⑨-|
71
①⑤⑧② |①-②-|
⑤③②④ |③-④-|
③①④⑧ |⑤-⑥-|
⑦⑦⑥⑥ |⑦-⑧-|
72
①□□② |①-②-|
□③②③ |③---|
③①③□ |④--⑤|
□□□□ |--⑥-|

□④⑤□
④□□□
□⑥□⑤
⑥⑤⑥④
73
④⑧⑥① |①-②-|
⑥③①④ |③-④-|
②□③⑧ |⑤-⑥-|
⑦□□⑤ |⑦-⑧-|
74
□□□④ |①-②-|
□④②□ |③-④-|
②□③□ |⑤-⑥-|
□□①□ |⑦-⑧-|

⑥⑧□□
□□□⑦
□⑦□□
□⑤⑧⑥
75
□□②③ |①②-③|
⑤④□□ |-④-⑤|
①□③② |-⑥-⑦|
④⑤□□ |-⑧-⑨|

⑨⑧□□
□□⑥⑦
⑧⑨□□
□□⑦⑥
76
□□①② |-①-②|
④③⑥⑤ |-③-④|
⑧⑦②① |⑤-⑥-|
③④□□ |⑦-⑧-|
77
④□□② |①---|
②□□④ |②---|
□④②□ |③---|
③□□① |④---|
78
⑦⑦①⑥ |①---|
②①⑤□ |②---|
□④②① |③④⑤⑥|
③②□□ |⑦---|
79
□④②□ |①---|
②□□④ |②---|
④□□② |③---|
③③①① |④---|
80
③□□③ |①-②-|
②□□□ |③---|
□③③□ |④--⑤|
□□①□ |--⑥-|

□□□□
□④⑤□
□□□④
⑤⑥⑥□
81
□⑤③⑨ |①②-③|
②④⑧⑩ |-④⑤-|
①⑦□⑪ |⑥⑦⑧⑨|
⑥□□⑫ |⑩⑪⑫-|
82
③④□□ |①---|
□□□□ |--②-|
□□②④ |③-④-|
□①①□ |⑤-⑥-|

□□□□
⑥□□□
□□□□
⑤□⑥□
83
⑨□②⑤ |①②-③|
⑩⑧①④ |-④⑤-|
⑪□⑦□ |⑥⑦⑧⑨|
⑫③□⑥ |⑩⑪⑫-|
84
□④⑦□ |①②③④|
□⑧③□ |⑤⑥⑦⑧|
□②□⑤ |⑨-⑩-|
□⑥①□ |--⑪-|

⑪□□⑪
□□□⑩
⑩⑪□□
□□□⑨
85
⑫⑪⑩⑨ |①②-③|
③⑥⑦⑧ |-④⑤-|
□□②⑤ |⑥⑦⑧⑨|
□□①④ |⑩⑪⑫-|
86
⑬⑫⑪⑩ |①②③④|
□⑦⑧⑨ |⑤⑥⑦⑧|
□⑥⑤④ |⑨⑩⑪⑫|
□①②③ |⑬---|
87
□⑫⑪⑩ |①②-③|
⑥⑦⑧⑨ |-④⑤-|
③□②⑤ |⑥⑦⑧⑨|
□□①④ |⑩⑪⑫-|
88
⑥□□□ |①②-③|
⑥⑤□⑨ |④-⑤⑥|
②⑧⑦④ |-⑦--|
②①③④ |⑧-⑨-|
89
②①□② |①---|
□②②□ |②---|
②□□② |----|
□□□□ |----|
90
□①②③ |----|
□□□□ |--①②|
□□□□ |③---|
□□□□ |----|
最終更新:2024年09月14日 15:21